Цифровая радиостанция / The Numbers Station (2013) BDRip 1080p от New-Team | P | лицензия

 
Автор Сообщение

sergej644 ®

Пол:

Стаж: 4 года 11 месяцев

Сообщений: 6041

Откуда: Soviet Union



Награды: Нет

Торрент-статистика

Создавать темы 23-Янв-2015 22:25

[Цитировать]

--Цифровая радиостанция / The Numbers Station«The code has never been compromised. Until now» -Страна: Великобритания, США, Бельгия / Atlantic Swiss Productions, Blue Lake Media Fund, ContentFilm International, Echo Lake Entertainment, Furst Films, International Pictures One, Le Tax Shelter du Gouvernement Fédéral de Belgique, Matador Pictures, Piccadilly Pictures, uFilm
Жанр: боевик, триллер
Год выпуска: 2013
Продолжительность: 01:28:55
Перевод: Профессиональный (многоголосый)
Cубтитры: русские, английские
Оригинальная аудиодорожка: английский
Режиссер: Каспер Барфоэд / Kasper Barfoed
В ролях: Джон Кьюсак, Малин Акерман, Лиам Каннингэм, Ричард Брэйк, Брайан Дик, Финбар Линч, Люси Гриффитс, Джои Анса, Виктор Гарднер, Джо Монтана...
Описание: Тайный агент Эмерсон, потерявший доверие начальства, получает последнее задание. Во время спец операции он должен обеспечить безопасность работы Кэт, шифровальщицы секретной радиостанции ЦРУ, установленной в пустыне Невада. Яркой вспышкой между ними загорается чувство... Но скоро он узнает, что после выполнения задания, девушка подлежит ликвидации. Оба они теперь смертники. Но Эммерсон будет защищать возлюбленную до конца.

Качество: BDRip 1080p / DVD5 R5 от "Paradise" - Лицензионный диск
Формат: MKV
Видео: 1920x800 (2.40:1), MPEG-4 AVC 11,2 Мбит/сек / 23.976 fps / Бит/(Пиксели*Кадры) : 0.305
Аудио 1: Dolby Digital Audio Russian 384 kbps 5.1 / 48 kHz | Лицензия
Аудио 2: DTS Audio English 1536 kbps 5.1 / 48 kHz | Оригинал
Формат субтитров: SoftSub (srt)
Дополнительно: Фильм разбит на главы, как на оригинальном Blu-ray диске. Исправил русские субтитры, удалив из них мат и орфографические и синтаксические ошибки.
Раздача от:

MediaInfo

Общее
Полное имя : Tsifrovaya.radiostntsiya.2013.BDRip.1080p.mkv
Формат : Matroska
Версия формата : Version 4 / Version 2
Размер файла : 8,14 Гбайт
Продолжительность : 1 ч. 28 м.
Общий поток : 13,1 Мбит/сек
Дата кодирования : UTC 2014-08-19 16:43:55
Программа кодирования : mkvmerge v7.1.0 ('Good Love') 64bit built on Jul 27 2014 13:06:55
Библиотека кодирования : libebml v1.3.0 + libmatroska v1.4.1
DURATION : 01:28:54.976000000
NUMBER_OF_FRAMES : 166718
NUMBER_OF_BYTES : 256078848
_STATISTICS_WRITING_APP : mkvmerge v7.1.0 ('Good Love') 64bit built on Jul 27 2014 13:06:55
_STATISTICS_WRITING_DATE_UTC : 2014-08-19 16:43:55
_STATISTICS_TAGS : BPS DURATION NUMBER_OF_FRAMES NUMBER_OF_BYTES
Видео
Идентификатор : 1
Формат : AVC
Формат/Информация : Advanced Video Codec
Профиль формата : High@L4.1
Параметр CABAC формата : Да
Параметр ReFrames формата : 4 кадра
Идентификатор кодека : V_MPEG4/ISO/AVC
Продолжительность : 1 ч. 28 м.
Битрейт : 11,2 Мбит/сек
Ширина : 1920 пикселей
Высота : 800 пикселей
Соотношение сторон : 2,40:1
Режим частоты кадров : Постоянный
Частота кадров : 23,976 кадра/сек
Цветовое пространство : YUV
Субдискретизация насыщенности : 4:2:0
Битовая глубина : 8 бит
Тип развёртки : Прогрессивная
Бит/(Пиксели*Кадры) : 0.305
Размер потока : 6,81 Гбайт (84%)
Библиотека кодирования : x264 core 125 r2208 d9d2288
Настройки программы : cabac=1 / ref=4 / deblock=1:-3:-3 / analyse=0x3:0x113 / me=umh / subme=10 / psy=1 / psy_rd=1.05:0.10 / mixed_ref=1 / me_range=32 / chroma_me=1 / trellis=2 / 8x8dct=1 / cqm=0 / deadzone=21,11 / fast_pskip=0 / chroma_qp_offset=-2 / threads=8 / lookahead_threads=1 / sliced_threads=0 / nr=0 / decimate=1 / interlaced=0 / bluray_compat=0 / constrained_intra=0 / bframes=6 / b_pyramid=2 / b_adapt=2 / b_bias=0 / direct=3 / weightb=1 / open_gop=0 / weightp=2 / keyint=250 / keyint_min=23 / scenecut=40 / intra_refresh=0 / rc=2pass / mbtree=0 / bitrate=11235 / ratetol=1.0 / qcomp=0.70 / qpmin=0 / qpmax=69 / qpstep=4 / cplxblur=20.0 / qblur=0.5 / ip_ratio=1.40 / pb_ratio=1.30 / aq=2:1.00
Язык : English
Default : Да
Forced : Нет
DURATION : 01:28:54.951000000
NUMBER_OF_FRAMES : 127911
NUMBER_OF_BYTES : 7480883557
_STATISTICS_WRITING_APP : mkvmerge v7.1.0 ('Good Love') 64bit built on Jul 27 2014 13:06:55
_STATISTICS_WRITING_DATE_UTC : 2014-08-19 16:43:55
_STATISTICS_TAGS : BPS DURATION NUMBER_OF_FRAMES NUMBER_OF_BYTES
Аудио #1
Идентификатор : 2
Формат : AC-3
Формат/Информация : Audio Coding 3
Расширение режима : CM (complete main)
Параметр Endianness формата : Big
Идентификатор кодека : A_AC3
Продолжительность : 1 ч. 28 м.
Вид битрейта : Постоянный
Битрейт : 384 Кбит/сек
Каналы : 6 каналов
Расположение каналов : Front: L C R, Side: L R, LFE
Частота : 48,0 КГц
Битовая глубина : 16 бит
Метод сжатия : С потерями
Размер потока : 244 Мбайт (3%)
Заголовок : DUB
Язык : Russian
Default : Да
Forced : Нет
Аудио #2
Идентификатор : 3
Формат : DTS
Формат/Информация : Digital Theater Systems
Режим : 16
Параметр Endianness формата : Big
Идентификатор кодека : A_DTS
Продолжительность : 1 ч. 28 м.
Вид битрейта : Постоянный
Битрейт : 1509 Кбит/сек
Каналы : 6 каналов
Расположение каналов : Front: L C R, Side: L R, LFE
Частота : 48,0 КГц
Битовая глубина : 24 бит
Метод сжатия : С потерями
Размер потока : 960 Мбайт (12%)
Язык : English
Default : Нет
Forced : Нет
Текст #1
Идентификатор : 4
Формат : UTF-8
Идентификатор кодека : S_TEXT/UTF8
Идентификатор кодека/Информация : UTF-8 Plain Text
Язык : Russian
Default : Нет
Forced : Нет
Текст #2
Идентификатор : 5
Формат : UTF-8
Идентификатор кодека : S_TEXT/UTF8
Идентификатор кодека/Информация : UTF-8 Plain Text
Язык : English
Default : Нет
Forced : Нет
Меню
00:00:00.000 : en:00:00:00.000
00:08:55.618 : en:00:08:55.618
00:17:31.717 : en:00:17:31.717
00:25:58.098 : en:00:25:58.098
00:33:37.891 : en:00:33:37.891
00:42:08.276 : en:00:42:08.276
00:50:37.701 : en:00:50:37.701
00:59:09.838 : en:00:59:09.838
01:06:11.092 : en:01:06:11.092
01:11:15.938 : en:01:11:15.938
01:18:04.972 : en:01:18:04.972
01:23:55.697 : en:01:23:55.697

Скриншоты:

[Профиль] [ЛС]
Показать сообщения:    

Текущее время: Сегодня 08:31

Часовой пояс: GMT



Вы не можете начинать темы
Вы не можете отвечать на сообщения
Вы не можете редактировать свои сообщения
Вы не можете удалять свои сообщения
Вы не можете голосовать в опросах
Вы не можете прикреплять файлы к сообщениям
Вы не можете скачивать файлы