Цирюльник / The Barber (Бэйзел Оуис)[2014,триллер] WEB-DL 720p | L1

 
Автор Сообщение

adeei ®

Пол:

Стаж: 1 год 8 месяцев

Сообщений: 63

Откуда: Россия Иваново



Награды: 3 (Подробнее)

Mega Seeder 3 (Количество: 1) Mega Seeder 2 (Количество: 1) Mega Seeder 1 (Количество: 1)
Торрент-статистика

Создавать темы 04-Апр-2015 13:51

[Цитировать]

Цирюльник / The Barber Год выхода: 2014
Жанр: триллер
Выпущено: США
Продолжительность: 01:30:13
Озвучивание: Любительское (одноголосое) [Павел Морозов aka PashaUp]
Субтитры: English-Режиссер: Бэйзел Оуис-В ролях: Скотт Гленн, Стивен Тоболовски, Лидия Хёрст, Джессика Лу, Кристен Хагер, Крис Кой, Оливия Тейлор Дадли, Максимино Арсиньега, Тим Де Зарн, Вэлори Хаббард-Описание: В тихом маленьком городке живет обычный, ничем не примечательный старик. У него своя парикмахерская, он добропорядочный гражданин, его уважают и ценят окружающие. Но однажды его тихой и размеренной жизни приходит конец. Молодой человек, представившийся Джоном Лару, убежден, что парикмахер - никто иной, как серийный убийца, убивший 17 молодых женщин, закапывая их заживо.- -Формат: MKV
Качество: WEB-DL 720p
Видео: 3919 kb/s, 1280x534
Аудио#1: Russian: AC3, 384 kb/s (6 ch)
Аудио#2: English: AC3, 384 kb/s (6 ch)-

MI

Format : Matroska
Format version : Version 4 / Version 2
File size : 3.01 GiB
Duration : 1h 30mn
Overall bit rate : 4 782 Kbps
Encoded date : UTC 2015-04-04 11:05:09
Writing application : mkvmerge v6.1.0 ('Old Devil') built on Mar 4 2013 09:10:42
Writing library : libebml v1.3.0 + libmatroska v1.4.0
Video
ID : 1
Format : AVC
Format/Info : Advanced Video Codec
Format profile : Main@L3.1
Format settings, CABAC : No
Format settings, ReFrames : 2 frames
Codec ID : V_MPEG4/ISO/AVC
Duration : 1h 30mn
Bit rate : 3 919 Kbps
Width : 1 280 pixels
Height : 534 pixels
Display aspect ratio : 2.40:1
Frame rate : 23.976 fps
Color space : YUV
Chroma subsampling : 4:2:0
Bit depth : 8 bits
Scan type : Progressive
Bits/(Pixel*Frame) : 0.239
Stream size : 2.47 GiB (82%)
Language : English
Default : Yes
Forced : No
Color primaries : BT.709-5, BT.1361, IEC 61966-2-4, SMPTE RP177
Transfer characteristics : BT.709-5, BT.1361
Matrix coefficients : BT.709-5, BT.1361, IEC 61966-2-4 709, SMPTE RP177
Audio #1
ID : 2
Format : AC-3
Format/Info : Audio Coding 3
Mode extension : CM (complete main)
Format settings, Endianness : Big
Codec ID : A_AC3
Duration : 1h 30mn
Bit rate mode : Constant
Bit rate : 384 Kbps
Channel(s) : 6 channels
Channel positions : Front: L C R, Side: L R, LFE
Sampling rate : 48.0 KHz
Bit depth : 16 bits
Compression mode : Lossy
Stream size : 248 MiB (8%)
Language : Russian
Default : Yes
Forced : No
Audio #2
ID : 3
Format : AC-3
Format/Info : Audio Coding 3
Mode extension : CM (complete main)
Format settings, Endianness : Big
Codec ID : A_AC3
Duration : 1h 30mn
Bit rate mode : Constant
Bit rate : 384 Kbps
Channel(s) : 6 channels
Channel positions : Front: L C R, Side: L R, LFE
Sampling rate : 48.0 KHz
Bit depth : 16 bits
Compression mode : Lossy
Stream size : 248 MiB (8%)
Language : English
Default : No
Forced : No
Text
ID : 4
Format : UTF-8
Codec ID : S_TEXT/UTF8
Codec ID/Info : UTF-8 Plain Text
Language : English
Default : No
Forced : No
Menu
00:00:00.000 : en:1
00:05:32.000 : en:2
00:12:41.000 : en:3
00:21:18.000 : en:4
00:33:44.000 : en:5
00:41:57.000 : en:6
00:54:31.000 : en:7
01:01:40.000 : en:8
01:08:17.000 : en:9
01:14:38.000 : en:10
01:19:50.000 : en:11
01:25:24.000 : en:12
-
[Профиль] [ЛС]
Показать сообщения:    

Текущее время: Сегодня 08:02

Часовой пояс: GMT



Вы не можете начинать темы
Вы не можете отвечать на сообщения
Вы не можете редактировать свои сообщения
Вы не можете удалять свои сообщения
Вы не можете голосовать в опросах
Вы не можете прикреплять файлы к сообщениям
Вы не можете скачивать файлы