Цирк (Григорий Александров, Исидор Симков) [1936, СССР, комедия, музыкальный, BDRip 720p] [Цветная версия]

 
Автор Сообщение

TorrentFilm ®

Пол:

Стаж: 2 года

Сообщений: 7741



Награды: Нет

Торрент-статистика

Создавать темы 01-Янв-2016 00:07

[Цитировать]

Цирк / Цветная версия
Жанр: Комедия, музыкальный
Год выпуска: 1936
Продолжительность: 01:28:34
Режиссёры: Григорий Александров, Исидор Симков-В ролях:
Любовь Орлова ... Марион Диксон
Евгения Мельникова ... Раечка
Владимир Володин ... Людвиг Осипович
Сергей Столяров ... Иван Мартынов
Александр Комиссаров ... Скамейкин
Николай Отто ... Чарли Чаплин
Джим Паттерсон ... сын Марион
Федор Курихин ... капитан Борнео
Сергей Антимонов ... шпрехшталмейстер
Соломон Михоэлс ... зритель в цирке
-Описание: Музыкальный Фильм по мотивам комедии И.Ильфа, Е. Петрова "Под куполом цирка".
В середине 30-х годов американка Марион Диксон бежит из США с маленьким чернокожим сыном. Зная факты ее личной жизни, цирковой артист фон Кнейшиц шантажирует ее, заставляя работать с ним. Приехав с оригинальным аттракционом в СССР, Марион обретает здесь друзей, любимого человека и решает остаться здесь навсегда.
-Доп. информация: Сохранены оригинальные чаптеры, как и на Blu-ray-Релиз от -
-Качество видео: BDRip 720p
Формат видео: MKV
Видео: AVC, 1280x1072 (1.194), 25.000 fps, 10.7 Mbps (0.305 bit/pixel)
Аудио: AC-3, 48.0 KHz, 2 ch, 384 Kbps, CBR-

MI

GeneralFormat : MatroskaFormat version : Version 2File size : 6.85 GiBDuration : 1h 28mnOverall bit rate : 11.1 MbpsEncoded date : UTC 2012-07-05 19:54:50Writing application : mkvmerge v5.3.0 ('I could have danced') built on Feb 9 2012 10:38:07Writing library : libebml v1.2.3 + libmatroska v1.3.0
VideoID : 1Format : AVCFormat/Info : Advanced Video CodecFormat profile : High@L4.1Format settings, CABAC : YesFormat settings, ReFrames : 8 framesCodec ID : V_MPEG4/ISO/AVCDuration : 1h 28mnBit rate : 10.7 MbpsWidth : 1 280 pixelsHeight : 1 072 pixelsDisplay aspect ratio : 1.194Frame rate : 25.000 fpsColor space : YUVChroma subsampling : 4:2:0Bit depth : 8 bitsScan type : ProgressiveBits/(Pixel*Frame) : 0.311Stream size : 6.47 GiB (95%)Writing library : x264 core 119 r2106 07efeb4Encoding settings : cabac=1 / ref=8 / deblock=1:-3:-3 / analyse=0x3:0x113 / me=umh / subme=11 / psy=1 / psy_rd=0.95:0.00 / mixed_ref=1 / me_range=32 / chroma_me=1 / trellis=2 / 8x8dct=1 / cqm=0 / deadzone=21,11 / fast_pskip=0 / chroma_qp_offset=-2 / threads=6 / sliced_threads=0 / nr=0 / decimate=1 / interlaced=0 / bluray_compat=0 / constrained_intra=0 / bframes=6 / b_pyramid=2 / b_adapt=2 / b_bias=0 / direct=3 / weightb=1 / open_gop=0 / weightp=2 / keyint=250 / keyint_min=25 / scenecut=40 / intra_refresh=0 / rc=2pass / mbtree=0 / bitrate=10680 / ratetol=1.0 / qcomp=0.60 / qpmin=0 / qpmax=69 / qpstep=4 / cplxblur=20.0 / qblur=0.5 / ip_ratio=1.40 / pb_ratio=1.30 / aq=1:1.00Language : Russian
AudioID : 2Format : AC-3Format/Info : Audio Coding 3Mode extension : CM (complete main)Codec ID : A_AC3Duration : 1h 28mnBit rate mode : ConstantBit rate : 384 KbpsChannel(s) : 2 channelsChannel positions : Front: L RSampling rate : 48.0 KHzBit depth : 16 bitsCompression mode : LossyStream size : 243 MiB (3%)Title : Russian DD 2.0Language : Russian
Menu00:00:00.000 : en:00:00:00.00000:02:50.800 : en:00:02:50.80000:15:19.520 : en:00:15:19.52000:27:11.080 : en:00:27:11.08000:40:50.840 : en:00:40:50.84000:54:51.000 : en:00:54:51.00001:10:47.280 : en:01:10:47.280
[Профиль] [ЛС]
Показать сообщения:    

Текущее время: Сегодня 12:33

Часовой пояс: GMT



Вы не можете начинать темы
Вы не можете отвечать на сообщения
Вы не можете редактировать свои сообщения
Вы не можете удалять свои сообщения
Вы не можете голосовать в опросах
Вы не можете прикреплять файлы к сообщениям
Вы не можете скачивать файлы