Цирк (Григорий Александров, Исидор Симков) [1936, СССР, мюзикл, комедия, BD>DVD5 (Custom)] (Цветная версия)

 
Автор Сообщение

TorrentFilm ®

Пол:

Стаж: 2 года

Сообщений: 7741



Награды: Нет

Торрент-статистика

Создавать темы 01-Янв-2016 00:07

[Цитировать]

Цирк Страна: СССР
Студия: Мосфильм
Жанр: мюзикл, комедия
Год выпуска: 1936
Продолжительность: 01:28:35
Перевод: Не требуется
Cубтитры: нет
Режиссер: Григорий Александров, Исидор Симков
В ролях: Любовь Орлова, Евгения Мельникова, Владимир Володин, Сергей Столяров, Александр Комиссаров, Николай Отто, Джим Паттерсон, Федор Курихин, Сергей Антимонов, Соломон Михоэлс
Описание: Музыкальный Фильм по мотивам комедии И.Ильфа, Е. Петрова "Под куполом цирка". В середине 30-х годов американка Марион Диксон бежит из США с маленьким чернокожим сыном. Зная факты ее личной жизни, цирковой артист фон Кнейшиц шантажирует ее, заставляя работать с ним. Приехав с оригинальным аттракционом в СССР, Марион обретает здесь друзей, любимого человека и решает остаться здесь навсегда.
Доп. информация:
Исходник видео и аудио: Цирк (Григорий Александров, Исидор Симков) [1936, СССР, комедия, BDRemux 1080p] - спасибо raynor585
Главы: Ретро-Коллекция: Любовь Орлова "ЦИРК" (Григорий Александров) [1936 г., комедия, мюзикл, DVD5] - спасибо averhov
За инструкцию Создание видеодорожки для DVD (mpeg2) из прогрессивно го HD-источника (h264) и сопутствующи е моменты спасибо Mikky72
За помощь в создании этого релиза огромная благодарность ZVNV (Модератор)
Меню: русское, статичное, озвученное

Тип релиза: DVD5 (Custom)
Контейнер: DVD-Video
Видео: MPEG2, PAL, 4:3 (720x576) VBR
Аудио: Russian (Dolby AC3, 2 ch) 48000Hz, 384 Kbps

Script

LoadPlugin("C:\Program Files\FFMpegSource2\ffms2.dll") # подключение декодера
FFVideoSource("F:\Circus.1936.BluRayRemux.mkv") #открытие видео
crop (240,0,-240,0) #обрезаем излишки черных полей по бокам
LoadPlugin("C:\Program Files\AutoYUY2\AutoYUY2.dll") #подключение плагина
AutoYUY2() # конверсия цветового пространства
LoadPlugin("C:\Program Files\ColorMatrix\ColorMatrix.dll")
ColorMatrix(mode="Rec.709->Rec.601", inputFR=false, clamp=0) # 16-235
BicubicResize(720, 576, 0, 0.5) #ресайз методом Catmull-Rom spline
AddBorders (0,0,0,0) # добавление черных полос
AssumeFPS(25) #изменение частоты кадров под стандарт PAL 25 кадров/сек

muxman.log

MuxMan version 1.2.3
new clipboard database size 20, base 14ed88.
new project database size 400, base 14f518.
Accepted audio F:\Circus.1936.BluRayRemux.ac3
04:33:30 Begin multiplex VTS01.
Title Segment List
Segment_1 non-seamless
Buffering audio track 1 file F:\Circus.1936.BluRayRemux.ac3.
Maximum audio duration 265736 fields.
Positioned F:\Script_MPEG2_DVD_PAL(Mastering).m2v to 00:00:00:00
Starting scene Segment_1_scn1 at 00:00:00:00
SeqEnd at ED9624C0.
Bytes remaining in buffer = 0.
Bitrate - avg: 6499420, min: 2348373 (lba 0), max: 8574293 (lba 1847867).
Shortest GOP has 2 fields, longest GOP has 30 fields.
Fields: 265736, VOBU: 8907, Sectors: 2108313.
04:37:02 Begin multiplex VMG.
04:37:02 End multiplex.

Используемые программы

PgcDemux - извлечение глав
AVIMux - извлечение аудио
AVISynth
FFMpegSource2
AutoYUY2
ColorMatrix
Canopus ProCoder v3.05.91
MuxMan
Womble MPEG Video Wizard DVD 5.0.1.104 - импорт видео, глав, создание меню, экспорт готового проекта.

DVDInfo

Title: VIDEO_TS
Size: 4.24 Gb ( 4 442 748,00 KBytes ) - DVD-5
Enabled regions: 1, 2, 3, 4, 5, 6, 7, 8
VTS_01 :
Play Length: 01:28:34
Video: PAL 4:3 (720x576) VBR
Audio:
Russian (Dolby AC3, 2 ch)
* Menus Information *
VIDEO_TS Menu
Video:
PAL 4:3 (720x576) VBR
Audio:
Not specified (Dolby AC3, 2 ch)
Language Unit :
VTS_01 Menu
Video:
PAL 4:3 (720x576) VBR
Audio:
English (Dolby AC3, 2 ch)
Language Unit :
Root Menu

MediaInfo

Общее
Полное имя : F:\ФИЛЬМЫ\Цирк (Григорий Александров, Исидор Симков) [1936, СССР, мюзикл, комедия, BDDVD5 (Custom)]\VIDEO_TS\VTS_01_1.VOB
Формат : MPEG-PS
Размер файла : 1024 Мбайт
Продолжительность : 22 м.
Режим общего битрейта : Переменный
Общий поток : 6477 Кбит/сек
Библиотека кодирования : (c) 1998-2011 Womble Multimedia, Inc. / MPEG Video Wizard DVD 5.0.1.100 (03/2011) / Dec 15 2011
Видео
Идентификатор : 224 (0xE0)
Формат : MPEG Video
Версия формата : Version 2
Профиль формата : Main@Main
Параметр BVOP формата : Да
Параметр матрицы формата : Выборочная
Продолжительность : 22 м.
Вид битрейта : Переменный
Битрейт : 5964 Кбит/сек
Максимальный битрейт : 8000 Кбит/сек
Ширина : 720 пикселей
Высота : 576 пикселей
Соотношение сторон : 4:3
Частота кадров : 25,000 кадров/сек
Стандарт вещания : PAL
Цветовое пространство : YUV
Субдискретизация насыщенности : 4:2:0
Битовая глубина : 8 бит
Тип развёртки : Чересстрочная
Порядок развёртки : Верхнее поле первое
Метод сжатия : С потерями
Бит/(Пиксели*Кадры) : 0.575
Размер потока : 943 Мбайт (92%)
Библиотека кодирования : (c) 1998-2011 Womble Multimedia, Inc. / MPEG Video Wizard DVD 5.0.1.100 (03/2011) / Dec 15 2011
Аудио
Идентификатор : 189 (0xBD)-128 (0x80)
Формат : AC-3
Формат/Информация : Audio Coding 3
Расширение режима : CM (complete main)
Параметр Endianness формата : Big
Режим смешивания : DVD-Video
Продолжительность : 22 м.
Вид битрейта : Постоянный
Битрейт : 384 Кбит/сек
Каналы : 2 канала
Расположение каналов : Front: L R
Частота : 48,0 КГц
Битовая глубина : 16 бит
Метод сжатия : С потерями
Размер потока : 60,7 Мбайт (6%)
Меню

Скриншоты меню

Скриншоты фильма



[Профиль] [ЛС]
Показать сообщения:    

Текущее время: Сегодня 16:35

Часовой пояс: GMT



Вы не можете начинать темы
Вы не можете отвечать на сообщения
Вы не можете редактировать свои сообщения
Вы не можете удалять свои сообщения
Вы не можете голосовать в опросах
Вы не можете прикреплять файлы к сообщениям
Вы не можете скачивать файлы