Цирк (Григорий Александров, Исидор Симков) [1936, СССР, комедия, BDRip 1080p] (Цветная верия)

 
Автор Сообщение

painkiller ®

Стаж: 2 года 3 месяца

Сообщений: 582



Награды: Нет

Торрент-статистика

Создавать темы 14-Авг-2014 13:09

[Цитировать]

Цирк Страна: СССР
Студия: Мосфильм
Жанр: мюзикл, комедия
Год выпуска: 1936
Продолжительность: 01:28:34
Перевод: Не требуется
Cубтитры: нет
Режиссер: Григорий Александров, Исидор Симков
В ролях: Любовь Орлова, Евгения Мельникова, Владимир Володин, Сергей Столяров, Александр Комиссаров, Николай Отто, Джим Паттерсон, Федор Курихин, Сергей Антимонов, Соломон Михоэлс
Описание: Музыкальный Фильм по мотивам комедии И.Ильфа, Е. Петрова "Под куполом цирка". В середине 30-х годов американка Марион Диксон бежит из США с маленьким чернокожим сыном. Зная факты ее личной жизни, цирковой артист фон Кнейшиц шантажирует ее, заставляя работать с ним. Приехав с оригинальным аттракционом в СССР, Марион обретает здесь друзей, любимого человека и решает остаться здесь навсегда. --Релиз от:
rip by genkasper-Сэмпл
Тип релиза: BDRip 1080p
Контейнер: MKV
Видео: AVC / 1280x1080p / 25.00fps /12500 kbps / High@L4.1
Аудио: Dolby AC3 48000Hz stereo 384 Kbps

MInfo

Полное имя : Cirk.1936.1080p.BDRip.by_genkasper.mkv
Формат : Matroska
Версия формата : Version 2
Размер файла : 7,97 Гбайт
Продолжительность : 1 ч. 28 м.
Общий поток : 12,9 Мбит/сек
Дата кодирования : UTC 2012-02-09 08:29:29
Программа кодирования : mkvmerge v5.2.1 ('A Far Off Place') built on Jan 2 2012 23:21:10
Библиотека кодирования : libebml v1.2.3 + libmatroska v1.3.0
Видео
Идентификатор : 1
Формат : AVC
Формат/Информация : Advanced Video Codec
Профиль формата : High@L4.1
Параметр CABAC формата : Да
Параметр ReFrames формата : 5 кадров
Идентификатор кодека : V_MPEG4/ISO/AVC
Продолжительность : 1 ч. 28 м.
Битрейт : 12,5 Мбит/сек
Ширина : 1280 пикселей
Высота : 1080 пикселей
Соотношение сторон : 1,185
Частота кадров : 25,000 кадров/сек
Цветовое пространство : YUV
Субдискретизация насыщенности : 4:2:0
Битовая глубина : 8 бит
Тип развёртки : Прогрессивная
Бит/(Пиксели*Кадры) : 0.362
Размер потока : 7,58 Гбайт (95%)
Библиотека кодирования : x264 core 115 r1936 7a9e08d
Настройки программы : cabac=1 / ref=5 / deblock=1:-1:-1 / analyse=0x3:0x133 / me=umh / subme=10 / psy=1 / psy_rd=1.00:0.10 / mixed_ref=1 / me_range=24 / chroma_me=1 / trellis=2 / 8x8dct=1 / cqm=0 / deadzone=21,11 / fast_pskip=0 / chroma_qp_offset=-3 / threads=9 / sliced_threads=0 / nr=0 / decimate=1 / interlaced=0 / bluray_compat=0 / constrained_intra=0 / bframes=8 / b_pyramid=2 / b_adapt=2 / b_bias=0 / direct=3 / weightb=1 / open_gop=0 / weightp=2 / keyint=250 / keyint_min=25 / scenecut=40 / intra_refresh=0 / rc_lookahead=50 / rc=2pass / mbtree=1 / bitrate=12500 / ratetol=1.0 / qcomp=0.70 / qpmin=0 / qpmax=69 / qpstep=4 / cplxblur=20.0 / qblur=0.5 / ip_ratio=1.40 / aq=1:1.00
Язык : English
Аудио
Идентификатор : 2
Формат : AC-3
Формат/Информация : Audio Coding 3
Расширение режима : CM (complete main)
Идентификатор кодека : A_AC3
Продолжительность : 1 ч. 28 м.
Вид битрейта : Постоянный
Битрейт : 384 Кбит/сек
Каналы : 2 канала
Расположение каналов : Front: L R
Частота : 48,0 КГц
Битовая глубина : 16 бит
Метод сжатия : С потерями
Размер потока : 243 Мбайт (3%)
Заголовок : Rus
Язык : Russian

log 2-nd pass

x264 [info]: frame I:785 Avg QP:15.84 size:163390 PSNR Mean Y:48.46 U:53.80 V:53.60 Avg:49.59 Global:49.39
x264 [info]: frame P:26923 Avg QP:18.22 size: 93845 PSNR Mean Y:46.81 U:52.85 V:52.59 Avg:48.01 Global:47.53
x264 [info]: frame B:105160 Avg QP:19.71 size: 53731 PSNR Mean Y:45.11 U:52.21 V:51.95 Avg:46.42 Global:46.25
x264 [info]: consecutive B-frames: 1.2% 1.1% 6.1% 18.1% 11.2% 60.7% 1.1% 0.2% 0.3%
x264 [info]: mb I I16..4: 2.8% 90.0% 7.2%
x264 [info]: mb P I16..4: 0.8% 45.7% 1.8% P16..4: 25.2% 20.0% 3.5% 0.2% 0.1% skip: 2.6%
x264 [info]: mb B I16..4: 0.1% 7.9% 0.2% B16..8: 38.3% 15.6% 4.3% direct:17.3% skip:16.3% L0:37.0% L1:37.4% BI:25.6%
x264 [info]: 8x8 transform intra:95.2% inter:71.9%
x264 [info]: direct mvs spatial:98.8% temporal:1.2%
x264 [info]: coded y,uvDC,uvAC intra: 97.1% 52.2% 22.0% inter: 58.8% 19.5% 1.1%
x264 [info]: i16 v,h,dc,p: 20% 9% 8% 63%
x264 [info]: i8 v,h,dc,ddl,ddr,vr,hd,vl,hu: 12% 9% 13% 8% 12% 11% 11% 11% 14%
x264 [info]: i4 v,h,dc,ddl,ddr,vr,hd,vl,hu: 11% 7% 3% 9% 16% 16% 14% 12% 13%
x264 [info]: i8c dc,h,v,p: 37% 33% 22% 9%
x264 [info]: Weighted P-Frames: Y:28.6% UV:8.6%
x264 [info]: ref P L0: 42.7% 12.8% 18.2% 13.3% 9.8% 3.1% 0.1%
x264 [info]: ref B L0: 85.7% 9.3% 3.7% 1.3%
x264 [info]: ref B L1: 96.7% 3.3%
x264 [info]: SSIM Mean Y:0.9817622 (17.390db)
x264 [info]: PSNR Mean Y:45.474 U:52.351 V:52.091 Avg:46.763 Global:46.493 kb/s:12501.37

Скриншоты

source -> genkasper




[Профиль] [ЛС]
Показать сообщения:    

Текущее время: Сегодня 22:33

Часовой пояс: GMT



Вы не можете начинать темы
Вы не можете отвечать на сообщения
Вы не можете редактировать свои сообщения
Вы не можете удалять свои сообщения
Вы не можете голосовать в опросах
Вы не можете прикреплять файлы к сообщениям
Вы не можете скачивать файлы