Цирк: иллюзия любви (Центр защиты прав животных "ВИТА") [2012, Документальный, DVDRip-AVC]

 
Автор Сообщение

reversefile ®

Пол:

Стаж: 4 года 5 месяцев

Сообщений: 842

Откуда: ReverseFile.org



Награды: Нет

Торрент-статистика

Создавать темы 11-Авг-2014 06:20

[Цитировать]

Цирк: иллюзия любви
Дата/Год выпуска: 2012
Страна: Россия
Жанр: Документальный
Продолжительность: 00:28:18
Перевод: Не требуется
Русские субтитры: Нет
Режиссер: Центр защиты прав животных "ВИТА"
Описание:
Фильм рассказывает об истории возникновении цирков с животными, о судьбе животных в неволе, о методах дрессуры, о развитии мирового движения против использования животных в цирках, о современных нежестоких развлечениях, об этичных цирках и т.д.
В фильме участвуют Лайма Вайкуле, Ольга Шелест.
Текст читает заслуженный артист России Сергей Чонишвили.
Доп. информация: Релиз от
Центр защиты прав животных "ВИТА" выражает благодарность компании "LUSH" за помощь в создании фильма.
Фильм удостоен награды V Международного кинофестиваля "Ступени" (2012) как Лучший документальный фильм по правам животных в номинации "Увидеть эту неудобную правду".
Качество: DVDRip (исходник)
Формат: MP4
Видео: H.264; 720x576 (4:3); 25.000 fps; 2079 kbps
Аудио: AAC-LC; 48000 Hz; 2 ch; 128 kbps

MediaInfo:

GeneralComplete name : D:\My Archive\Video\Documentary\Cirk. Illjuzija ljubvi.mp4Format : MPEG-4Format profile : Base MediaCodec ID : isomFile size : 448 MiBDuration : 28mn 18sOverall bit rate mode : VariableOverall bit rate : 2 211 KbpsEncoded date : UTC 2014-02-27 18:24:17Tagged date : UTC 2014-02-27 18:24:17
VideoID : 1Format : AVCFormat/Info : Advanced Video CodecFormat profile : High@L3.1Format settings, CABAC : YesFormat settings, ReFrames : 8 framesCodec ID : avc1Codec ID/Info : Advanced Video CodingDuration : 28mn 18sBit rate : 2 079 KbpsMaximum bit rate : 10.0 MbpsWidth : 720 pixelsHeight : 576 pixelsDisplay aspect ratio : 4:3Frame rate mode : ConstantFrame rate : 25.000 fpsStandard : PALColor space : YUVChroma subsampling : 4:2:0Bit depth : 8 bitsScan type : ProgressiveBits/(Pixel*Frame) : 0.201Stream size : 421 MiB (94%)Writing library : x264 core 130 r2273 b3065e6Encoding settings : cabac=1 / ref=8 / deblock=1:-2:-1 / analyse=0x3:0x113 / me=umh / subme=10 / psy=1 / psy_rd=1.00:0.20 / mixed_ref=1 / me_range=24 / chroma_me=1 / trellis=2 / 8x8dct=1 / cqm=0 / deadzone=21,11 / fast_pskip=0 / chroma_qp_offset=-3 / threads=3 / lookahead_threads=1 / sliced_threads=0 / nr=0 / decimate=1 / interlaced=0 / bluray_compat=0 / constrained_intra=0 / bframes=3 / b_pyramid=2 / b_adapt=2 / b_bias=0 / direct=3 / weightb=1 / open_gop=0 / weightp=2 / keyint=250 / keyint_min=25 / scenecut=40 / intra_refresh=0 / rc_lookahead=60 / rc=crf / mbtree=1 / crf=20.0 / qcomp=0.60 / qpmin=0 / qpmax=69 / qpstep=4 / vbv_maxrate=17500 / vbv_bufsize=14000 / crf_max=0.0 / nal_hrd=none / ip_ratio=1.40 / aq=1:1.00Encoded date : UTC 2014-02-27 18:24:17Tagged date : UTC 2014-02-27 18:24:31
AudioID : 2Format : AACFormat/Info : Advanced Audio CodecFormat profile : LCCodec ID : 40Duration : 28mn 18sBit rate mode : VariableBit rate : 128 KbpsMaximum bit rate : 179 KbpsChannel(s) : 2 channelsChannel positions : Front: L RSampling rate : 48.0 KHzCompression mode : LossyStream size : 25.9 MiB (6%)Encoded date : UTC 2014-02-27 18:24:29Tagged date : UTC 2014-02-27 18:24:31

Скриншоты:

[Профиль] [ЛС]
Кто просматривает тему:

Показать сообщения:    

Текущее время: Сегодня 20:42

Часовой пояс: GMT



Вы не можете начинать темы
Вы не можете отвечать на сообщения
Вы не можете редактировать свои сообщения
Вы не можете удалять свои сообщения
Вы не можете голосовать в опросах
Вы не можете прикреплять файлы к сообщениям
Вы не можете скачивать файлы