Цепная реакция (Карамболь) / Carambolages (1963) BDRip 1080p от MediaClub | P, A

 
Автор Сообщение

Белочка ®

Пол:

Стаж: 5 лет 1 месяц

Сообщений: 2089



Награды: 1 (Подробнее)

Girls (Количество: 1)
Торрент-статистика

Создавать темы 14-Окт-2014 18:19

[Цитировать]

Информация о фильме
Название: Цепная реакция (Карамболь)
Оригинальное название: Carambolages
Год выхода: 1963
Жанр: Комедия, криминал
Режиссер: Марсель Блюваль
В ролях: Луи де Фюнес, Жан-Клод Бриали, Софи Домье, Анн Тоньетти, Мишель Серро, Альфред Адам, Жак Динам, Ален Делон
О фильме:
Глава туристического рекламного агентства «321» Норбер Шароле (Луи де Фюнес) пытается по-новому привлекать клиентов. В качестве рекламы ему понравилась идея молодого служащего Поля Мартена (Жан-Клод Бриали), символом этого сезона будет зеленая лягушка. На собрании, он высказал и утвердил «свою» новую модель, что сильно расстроило Поля. С этого момента у Поля вкралась мысль, что кто-то в этой организации лишний... Далее идет череда нелепых случаев со смертельным исходом, результатом которых было поднятие по служебной лестнице господина Мартена до кресла директора агентства «321». Экранизация по произведению: Фред Кассак

Страна: Франция / Gaumont International
Продолжительность: 01:24:44
Перевод: Профессиональный многоголосый, авторский
Файл
Качество: BDRip 1080p
Видео: MPEG-4 AVC, 16500 Кбит/с, 1792x1080, 24.000 кадр/с
Аудио #1: Русский (AC3, 2 ch, 192 Кбит/с) / Профессиональный многоголосый ("ТК Россия")
Аудио #2: Русский (AC3, 2 ch, 192 Кбит/с) / Авторский одноголосый (С. Козлов)
Аудио #3: Французский (DTS, 2 ch, 768 Кбит/с)
Субтитры: Русские (форсированные), французские
Семпл

MediaInfo + Лог х264

x264 [info]: frame I:673 Avg QP:14.69 size:191991
x264 [info]: frame P:25095 Avg QP:17.07 size:132399
x264 [info]: frame B:101336 Avg QP:19.42 size: 73697
x264 [info]: consecutive B-frames: 0.9% 1.6% 6.0% 13.4% 9.2% 64.7% 3.7% 0.2% 0.2%
x264 [info]: mb I I16..4: 9.2% 72.8% 18.0%
x264 [info]: mb P I16..4: 2.4% 40.0% 2.9% P16..4: 20.5% 24.3% 7.8% 0.7% 0.0% skip: 1.4%
x264 [info]: mb B I16..4: 0.2% 6.5% 0.1% B16..8: 46.7% 24.6% 4.7% direct: 8.4% skip: 8.7% L0:47.2% L1:37.6% BI:15.3%
x264 [info]: 8x8 transform intra:90.4% inter:58.6%
x264 [info]: direct mvs spatial:99.3% temporal:0.7%
x264 [info]: coded y,uvDC,uvAC intra: 95.8% 0.3% 0.0% inter: 62.7% 0.1% 0.0%
x264 [info]: i16 v,h,dc,p: 18% 16% 38% 28%
x264 [info]: i8 v,h,dc,ddl,ddr,vr,hd,vl,hu: 10% 9% 12% 9% 13% 11% 11% 12% 13%
x264 [info]: i4 v,h,dc,ddl,ddr,vr,hd,vl,hu: 14% 11% 18% 7% 11% 10% 10% 9% 11%
x264 [info]: i8c dc,h,v,p: 51% 49% 0% 0%
x264 [info]: Weighted P-Frames: Y:5.6% UV:0.3%
x264 [info]: ref P L0: 47.2% 10.7% 25.2% 15.3% 1.5% 0.0%
x264 [info]: ref B L0: 87.3% 9.5% 3.2%
x264 [info]: ref B L1: 94.8% 5.2%
x264 [info]: kb/s:16495.32
*************************************************************************************************
Format : Matroska
Format version : Version 4 / Version 2
File size : 10.9 GiB
Duration : 1h 28mn
Overall bit rate : 17.7 Mbps
Movie name : Encode by Odessit
Encoded date : UTC 2014-10-13 21:25:18
Writing application : mkvmerge v6.8.0 ('Theme for Great Cities') 64bit built on Mar 2 2014 21:34:26
Writing library : libebml v1.3.0 + libmatroska v1.4.1
Video
ID : 1
Format : AVC
Format/Info : Advanced Video Codec
Format profile : High@L4.1
Format settings, CABAC : Yes
Format settings, ReFrames : 4 frames
Codec ID : V_MPEG4/ISO/AVC
Duration : 1h 28mn
Bit rate : 16.5 Mbps
Width : 1 792 pixels
Height : 1 080 pixels
Display aspect ratio : 1.659
Frame rate : 24.000 fps
Color space : YUV
Chroma subsampling : 4:2:0
Bit depth : 8 bits
Scan type : Progressive
Bits/(Pixel*Frame) : 0.355
Stream size : 9.96 GiB (92%)
Writing library : x264 core 142 r2409+42 04be48a tMod [8-bit@all X86_64]
Encoding settings : cabac=1 / ref=4 / deblock=1:-3:-3 / analyse=0x3:0x133 / me=umh / subme=11 / psy=1 / fade_compensate=0.00 / psy_rd=1.05:0.10 / mixed_ref=1 / me_range=32 / chroma_me=1 / trellis=2 / 8x8dct=1 / cqm=0 / deadzone=21,11 / fast_pskip=0 / chroma_qp_offset=-3 / threads=6 / lookahead_threads=1 / sliced_threads=0 / nr=0 / decimate=0 / interlaced=0 / bluray_compat=0 / constrained_intra=0 / fgo=0 / bframes=8 / b_pyramid=2 / b_adapt=2 / b_bias=0 / direct=3 / weightb=1 / open_gop=0 / weightp=2 / keyint=250 / keyint_min=24 / scenecut=40 / intra_refresh=0 / rc_lookahead=60 / rc=2pass / mbtree=0 / bitrate=16500 / ratetol=1.0 / qcomp=0.70 / qpmin=0:0:0 / qpmax=69:69:69 / qpstep=4 / cplxblur=20.0 / qblur=0.5 / vbv_maxrate=50000 / vbv_bufsize=62500 / nal_hrd=none / filler=0 / ip_ratio=1.40 / pb_ratio=1.30 / aq=3:0.75 / aq-sensitivity=10.00 / aq-factor=1.00:1.00:1.00 / aq2=0 / aq3=0
Language : English
Color primaries : BT.709
Transfer characteristics : BT.709
Matrix coefficients : BT.709
Audio #1
ID : 2
Format : AC-3
Format/Info : Audio Coding 3
Mode extension : CM (complete main)
Codec ID : A_AC3
Duration : 1h 28mn
Bit rate mode : Constant
Bit rate : 192 Kbps
Channel(s) : 2 channels
Channel positions : Front: L R
Sampling rate : 48.0 KHz
Bit depth : 16 bits
Compression mode : Lossy
Stream size : 121 MiB (1%)
Title : Многоголосый закадровый, "ТК Россия"
Language : Russian
Audio #2
ID : 3
Format : AC-3
Format/Info : Audio Coding 3
Mode extension : CM (complete main)
Codec ID : A_AC3
Duration : 1h 28mn
Bit rate mode : Constant
Bit rate : 192 Kbps
Channel(s) : 2 channels
Channel positions : Front: L R
Sampling rate : 48.0 KHz
Bit depth : 16 bits
Compression mode : Lossy
Stream size : 121 MiB (1%)
Title : Одноголосый закадровый, С. Козлов
Language : Russian
Audio #3
ID : 4
Format : DTS
Format/Info : Digital Theater Systems
Codec ID : A_DTS
Duration : 1h 28mn
Bit rate mode : Constant
Bit rate : 755 Kbps
Channel(s) : 2 channels
Channel positions : Front: L R
Sampling rate : 48.0 KHz
Bit depth : 16 bits
Compression mode : Lossy
Stream size : 476 MiB (4%)
Language : French
Text #1
ID : 5
Format : UTF-8
Codec ID : S_TEXT/UTF8
Codec ID/Info : UTF-8 Plain Text
Title : Forced
Language : Russian
Text #2
ID : 6
Format : UTF-8
Codec ID : S_TEXT/UTF8
Codec ID/Info : UTF-8 Plain Text
Title : Full
Language : French
Menu
00:00:00.000 : :Chapter 01
00:06:54.000 : :Chapter 02
00:14:09.457 : :Chapter 03
00:19:04.625 : :Chapter 04
00:26:29.415 : :Chapter 05
00:31:54.040 : :Chapter 06
00:38:57.707 : :Chapter 07
00:45:17.457 : :Chapter 08
00:51:58.332 : :Chapter 09
00:58:58.333 : :Chapter 10
01:06:16.583 : :Chapter 11
01:17:10.666 : :Chapter 12

Скриншоты

[Профиль] [ЛС]
Кто просматривает тему:

Показать сообщения:    

Текущее время: Сегодня 11:54

Часовой пояс: GMT



Вы не можете начинать темы
Вы не можете отвечать на сообщения
Вы не можете редактировать свои сообщения
Вы не можете удалять свои сообщения
Вы не можете голосовать в опросах
Вы не можете прикреплять файлы к сообщениям
Вы не можете скачивать файлы