Цена человека / Il capitale umano (2013) BDRip 720р | Лицензия

 
Автор Сообщение

Russian Mafia ®

Пол:

Стаж: 1 год 8 месяцев

Сообщений: 4252



Награды: 10 (Подробнее)

Top Releaser 4 (Количество: 1) Top Releaser 3 (Количество: 1) Mega Seeder 1 (Количество: 1)
Торрент-статистика

Создавать темы 23-Окт-2015 07:19

[Цитировать]

Информация о фильме
Название: Цена человека
Оригинальное название: Il capitale umano
Год выхода: 2013
Жанр: Драма
Режиссер: Паоло Вирдзи
В ролях: Фабрицио Бентивольо, Матильда Джоли, Валерия Бруни-Тедески, Гульельмо Пинелли, Фабрицио Джифуни, Джиджио Алберти, Валерия Голино, Сильвия Коэн, Луиджи Ло Кашио, Бебо Сторти
О фильме:
«Мы всем пожертвовали ради вас. И вами тоже»
Озеро Комо, Италия. Велосипедист был сбит джипом в ночь перед Сочельником. Что произошло в ту ночь? Как изменит эта авария судьбы богатой семьи Бернаски и находящейся на грани банкротства семьи Ровелли? Итальянский фильм с большим бюджетом и ворохом фестивальных наград о жизни двух богатых семейств, находящихся на грани банкротства не только в экономическом, но и моральном смысле. Редкий пример увлекательного социального европейского кино, поданного под видом семейной драмы.

Страна: Италия, Франция
Студия: Rai Cinema
Продолжительность: 01:50:49
Перевод: Профессиональный многоголосый [Лицензия R5]
Файл
Кодек: AVC/H.264
Качество: BDRip 720р
Видео: MPEG-4 AVC, 7500 Кбит/с, 1280x536
Аудио: Русский (AC3, 6 ch, 384 Кбит/с), итальянский (AC3, 6 ch, 640 Кбит/с)

Скриншоты

MediaInfo

General
Unique ID : 230729342727626507393611057549391995827 (0xAD94DAE2A4838E3D8A6ED31C7238A3B3)
Complete name : D:ВидеоT7eNa.4eL0vEka.2015.P.BDRip.720p.mkv
Format : Matroska
Format version : Version 4 / Version 2
File size : 6.60 GiB
Duration : 1h 50mn
Overall bit rate : 8 521 Kbps
Encoded date : UTC 2015-10-22 07:43:22
Writing application : mkvmerge v8.5.0 ('Vanishing Act') 64bit
Writing library : libebml v1.3.1 + libmatroska v1.4.2
DURATION : 01:50:48.800000000
NUMBER_OF_FRAMES : 207775
NUMBER_OF_BYTES : 319142400
_STATISTICS_WRITING_APP : mkvmerge v8.5.0 ('Vanishing Act') 64bit
_STATISTICS_WRITING_DATE_UTC : 2015-10-22 07:43:22
_STATISTICS_TAGS : BPS DURATION NUMBER_OF_FRAMES NUMBER_OF_BYTES
Video
ID : 1
Format : AVC
Format/Info : Advanced Video Codec
Format profile : High@L4.1
Format settings, CABAC : Yes
Format settings, ReFrames : 12 frames
Codec ID : V_MPEG4/ISO/AVC
Duration : 1h 50mn
Bit rate : 7 500 Kbps
Width : 1 280 pixels
Height : 536 pixels
Display aspect ratio : 2.40:1
Frame rate mode : Constant
Frame rate : 23.976 fps
Color space : YUV
Chroma subsampling : 4:2:0
Bit depth : 8 bits
Scan type : Progressive
Bits/(Pixel*Frame) : 0.456
Stream size : 5.67 GiB (86%)
Title : T7eNa.4eL0vEka.2015.P.BDRip.720p.ELEKTRI4KA.uniongang.tv
Writing library : x264 core 142 r2409+42 04be48a tMod [8-bit@all X86_64]
Encoding settings : cabac=1 / ref=12 / deblock=1:-3:-3 / analyse=0x3:0x113 / me=umh / subme=11 / psy=1 / fade_compensate=0.00 / psy_rd=1.06:0.00 / mixed_ref=1 / me_range=32 / chroma_me=1 / trellis=2 / 8x8dct=1 / cqm=0 / deadzone=21,11 / fast_pskip=0 / chroma_qp_offset=-2 / threads=6 / lookahead_threads=1 / sliced_threads=0 / nr=0 / decimate=0 / interlaced=0 / bluray_compat=0 / constrained_intra=0 / fgo=0 / bframes=8 / b_pyramid=2 / b_adapt=2 / b_bias=0 / direct=3 / weightb=1 / open_gop=0 / weightp=2 / keyint=250 / keyint_min=24 / scenecut=40 / intra_refresh=0 / rc_lookahead=50 / rc=2pass / mbtree=0 / bitrate=7500 / ratetol=1.0 / qcomp=0.67 / qpmin=0:0:0 / qpmax=69:69:69 / qpstep=4 / cplxblur=20.0 / qblur=0.5 / vbv_maxrate=50000 / vbv_bufsize=62500 / nal_hrd=none / filler=0 / ip_ratio=1.40 / pb_ratio=1.10 / aq=4:0.65 / aq-sensitivity=10.00 / aq-factor=1.00:1.00:1.00 / aq2=0 / aq3=0 / zones=0,1258,b=1.5/101580,101672,b=1.5
Language : Italian
Default : No
Forced : No
DURATION : 01:50:48.684000000
NUMBER_OF_FRAMES : 159409
NUMBER_OF_BYTES : 6228709636
_STATISTICS_WRITING_APP : mkvmerge v8.5.0 ('Vanishing Act') 64bit
_STATISTICS_WRITING_DATE_UTC : 2015-10-22 07:43:22
_STATISTICS_TAGS : BPS DURATION NUMBER_OF_FRAMES NUMBER_OF_BYTES
Audio #1
ID : 2
Format : AC-3
Format/Info : Audio Coding 3
Mode extension : CM (complete main)
Format settings, Endianness : Big
Codec ID : A_AC3
Duration : 1h 50mn
Bit rate mode : Constant
Bit rate : 384 Kbps
Channel(s) : 6 channels
Channel positions : Front: L C R, Side: L R, LFE
Sampling rate : 48.0 KHz
Bit depth : 16 bits
Compression mode : Lossy
Stream size : 304 MiB (5%)
Title : T7eNa.4eL0vEka.2015.P.BDRip.720p.ELEKTRI4KA.uniongang.tv
Language : Russian
Default : Yes
Forced : No
Audio #2
ID : 3
Format : AC-3
Format/Info : Audio Coding 3
Mode extension : CM (complete main)
Format settings, Endianness : Big
Codec ID : A_AC3
Duration : 1h 50mn
Bit rate mode : Constant
Bit rate : 640 Kbps
Channel(s) : 6 channels
Channel positions : Front: L C R, Side: L R, LFE
Sampling rate : 48.0 KHz
Bit depth : 16 bits
Compression mode : Lossy
Stream size : 507 MiB (8%)
Title : T7eNa.4eL0vEka.2015.P.BDRip.720p.ELEKTRI4KA.uniongang.tv
Language : Italian
Default : No
Forced : No
Text
ID : 4
Format : UTF-8
Codec ID : S_TEXT/UTF8
Codec ID/Info : UTF-8 Plain Text
Title : T7eNa.4eL0vEka.2015.P.BDRip.720p.ELEKTRI4KA.uniongang.tv
Language : English
Default : No
Forced : No
Menu
00:00:00.000 : en:CHAPTER01
00:11:30.315 : en:CHAPTER02
00:16:54.847 : en:CHAPTER03
00:21:41.050 : en:CHAPTER04
00:26:28.253 : en:CHAPTER05
00:30:17.274 : en:CHAPTER06
00:35:40.805 : en:CHAPTER07
00:43:32.819 : en:CHAPTER08
00:50:51.507 : en:CHAPTER09
00:54:58.128 : en:CHAPTER10
01:00:30.126 : en:CHAPTER11
01:07:11.152 : en:CHAPTER12
01:14:47.358 : en:CHAPTER13
01:21:17.206 : en:CHAPTER14
01:28:23.632 : en:CHAPTER15
01:32:24.748 : en:CHAPTER16
[Профиль] [ЛС]
Кто просматривает тему:

Показать сообщения:    

Текущее время: Сегодня 20:43

Часовой пояс: GMT



Вы не можете начинать темы
Вы не можете отвечать на сообщения
Вы не можете редактировать свои сообщения
Вы не можете удалять свои сообщения
Вы не можете голосовать в опросах
Вы не можете прикреплять файлы к сообщениям
Вы не можете скачивать файлы