Целитель Лука (Георгий Ананов) [2015, Документальный, HDTV 1080i]

 
Автор Сообщение

TorrentFilm ®

Пол:

Стаж: 1 год 11 месяцев

Сообщений: 7741



Награды: Нет

Торрент-статистика

Создавать темы 24-Апр-2015 00:04

[Цитировать]

Целитель Лука
Дата выхода: 11/04/2015
Страна: Россия
Жанр: Документальный
Продолжительность: 00:49:52
Перевод: Не требуется
Автор: Татьяна Сорокина-Артюкова
Режиссёр : Георгий Ананов
Телеканал: Россия HD
Описание: Святой Лука Крымский. Он принадлежит не к какой-то далёкой эпохе. Это святой нашего времени. По нему почти нет хроники. Но это только на первый взгляд. На самом деле он – оставил нам многое.

Далее

Вместо фотографий - иконы. А вместо хроники - исцеленные пациенты. Его жизнь – поступки, которые совершенно непонятны современному человеку. С точки зрения простого обывателя, Лука (Войно-Ясенецкий) все делал "не так как надо". Губил карьеру врача, портил отношения с властями, отказывался от высоких постов, не брал денег с пациентов. Он мог стать художником и пачкать руки лишь красками, а стал архиепископом, жертвой политических репрессий и "мужицким лекарем".
Больных он спасал при жизни, продолжает исцелять их и после смерти. Евгений Ефремов считает, что у него два дня рождения. 9 лет назад он попал в реанимацию с проломленной головой. Врачи уже готовили родственников к худшему. Но благодаря молитвам Святому Луке, Женя сегодня полностью здоров. Авторы фильма побывали в Симферополе. Здесь Лука служил и принимал больных последние годы своей жизни. Возможно, это просто совпадение, но возвращение Крыма в состав России произошло в день обретения мощей Святого Луки.
В Симферополе мы нашли внучатую племянницу Святого. Она рассказала, каким был ее "дядечка", как она его называла. Как он жил последние 15 лет своей жизни. Мы нашли человека, который видел Луку, еще будучи студентом. Анатолий Бабанин почитает Святителя и мечтает ввести в обязательную программу для студентов-медиков клятву Войно-Ясенецкого. Врачи Симферополя создали особое сообщество православных медиков. Они почитают Святителя, просят о помощи. Мы встретились с хирургом Виктором Шуваевым. Заведующим отделением костно-гнойной инфекции. За свою жизнь он такое перевидал, что кажется, его ничем не удивишь. Но пару лет назад с ним произошло настоящее чудо. Он исцелился от болезни, которая мучила его 18 лет.
Сохранились вещи, предметы и мебель св. Луки, они сегодня хранятся в музее на территории Свято-Троицкого монастыря Симферополя. Испытываешь удивительные ощущения, когда видишь очки, книги или инструменты Святого. Здесь царит особая атмосфера. Мощи святителя Луки хранятся в серебряной раке, которую в 2002 году подарили греческие священнослужители — митрополит Нектариос (Андонопулос) и отец Михаил. А сам монастырь стоит на улице Одесской, которая до 46 года была Греческой. И в этом тоже есть особый знак. Парадоксально, но факт – Святого Луку Крымского в Греции почитают больше, чем в России. Хотя в этой стране Святитель не был ни разу. Здесь более 30-ти храмов имени Святителя Луки. Оказывается, греки узнали о нем благодаря митрополиту Нектарию (Андонопулосу). Его так поразила жизнь Войно-Ясенецкого, что свою жизнь он решил посвятить распространению знаний о Владыке Луке. Мы записали интервью с Митрополитом Нектарием. Он показал удивительные иконы Луки, сделанные греческими мастерами, которые совсем не похожи на наши, познакомил нас с людьми, которые по молитвам Святому Луке остались живы или исцелились от тяжелых болезней.
Съемки фильма проходили и в Ташкенте. Городе, где произошел перелом в душе Святителя, тогда еще молодого врача. Здесь он стал священником, отсюда его впервые забрали в ссылку, здесь же он потерял свою любимую женщину. Хирурги Ташкента провели нас в операционную, где работал Войно-Ясенецкий, жители показали его дом.
По биографии святителя Луки можно изучать историю и географию России. Он пережил русско-японскую, Первую мировую войну, революцию, Гражданскую и Великую Отечественную войну, гонения на Церковь, лагеря и ссылки. Самая долгая ссылка была в Красноярский край. Именно здесь сегодня ходит поезд имени Святого Луки. Передвижной консультативно-диагностический центр. "Доктор Войно–Ясенецкий (Св. Лука)", в простонародье просто – поезд здоровья. Он ходит по самым отдаленным деревням и селам Красноярского края. Туда, где когда-то отбывал ссылку Святой Лука. Мы расскажем, как ведется прием больных, как живут и работают врачи.
В Севастополе мы нашли священника, который как две капли воды похож на Святителя Луку. Более того – сходство не только внешнее, но и биографическое. Отец Вячеслав, так же, как и Лука, был хирургом, а потом – стал священником. В Тамбове мы отыскали медсестру, которая в военные годы работала вместе с Лукой. Сегодня ей 97 лет.
Святой Лука Крымский. Этот человек стал легендой XX века, объединив, казалось бы, противоположные вещи: высокую образованность легендарного хирурга и глубокую веру православного архиерея. Белый халат и черная ряса были с ним до конца дней. Он мог отказаться от денег, от комфорта, от славы. Но отступить от своего пути – никогда.
Тип релиза: HDTV 1080i
Контейнер: TS
Видео: MPEG4 Video (H264) 1920x1080 25.00fps 7306kbps
Аудио: MPEG Audio 48000Hz stereo 192kbps

MediaInfo

ОбщееИдентификатор : 1 (0x1)Полное имя : *\Целитель Лука.HDTV.1080i.tsФормат : MPEG-TSРазмер файла : 2,75 ГбайтПродолжительность : 49 м.Режим общего битрейта : ПеременныйОбщий поток : 7890 Кбит/сек
ВидеоИдентификатор : 1603 (0x643)Идентификатор меню : 603 (0x25B)Формат : AVCФормат/Информация : Advanced Video CodecПрофиль формата : High@L4Параметр CABAC формата : ДаПараметр ReFrames формата : 3 кадраИдентификатор кодека : 27Продолжительность : 49 м.Битрейт : 7306 Кбит/секШирина : 1920 пикселейВысота : 1080 пикселейСоотношение сторон : 16:9Частота кадров : 25,000 кадров/секСтандарт вещания : ComponentЦветовое пространство : YUVСубдискретизация насыщенности : 4:2:0Битовая глубина : 8 битТип развёртки : ЧересстрочнаяПорядок развёртки : Верхнее поле первоеБит/(Пиксели*Кадры) : 0.141Размер потока : 2,54 Гбайт (93%)Цветовой диапазон : LimitedОсновные цвета : BT.709Характеристики трансфера : BT.709Коэффициенты матрицы : BT.709
АудиоИдентификатор : 2603 (0xA2B)Идентификатор меню : 603 (0x25B)Формат : MPEG AudioВерсия формата : Version 1Профиль формата : Layer 2Идентификатор кодека : 3Продолжительность : 49 м.Вид битрейта : ПостоянныйБитрейт : 192 Кбит/секКаналы : 2 каналаЧастота : 48,0 КГцМетод сжатия : С потерямиЗадержка видео : -120 мс.Размер потока : 68,5 Мбайт (2%)Язык : Russian

Скриншоты

Релиз группы: RiperAM
[Профиль] [ЛС]
Кто просматривает тему:

Форум Тема Автор Размер
Разная литература Дмитрий Коваль - Су-джок. 100 главных целительных точек нашего тела. Нажми на точку и исцелись! (2016) FB2 достали все 5 MB
Научная и техническая литература Коваль Дмитрий - Большая энциклопедия целительных точек от 1000 болезней (2016) PDF, FB2 достали все 7 MB
Разная литература Константинов Юрий - Мёд. Природный целитель (2016) FB2, RTF достали все 13 MB
Разная литература Лао Минь | Большой атлас целительных точек. 200 упражнений для здоровья и долголетия (2015) [PDF, FB2] достали все 13 MB
Разная литература Целебныя силы природы. Полный целебный травникъ [1871, Народная медицина / Целительство, PDF] Garik014 54 MB
Документальные HD Целитель Лука (Георгий Ананов) [2015, Документальный, HDTV 720p] TorrentFilm 1.46 GB
Разная литература Юрий Константинов | Целебные свойства уксуса (Карманный целитель) (2015) [FB2, RTF] Garik014 10 MB
Показать сообщения:    

Текущее время: Сегодня 14:01

Часовой пояс: GMT



Вы не можете начинать темы
Вы не можете отвечать на сообщения
Вы не можете редактировать свои сообщения
Вы не можете удалять свои сообщения
Вы не можете голосовать в опросах
Вы не можете прикреплять файлы к сообщениям
Вы не можете скачивать файлы