Цвет шафрана / Rang De Basanti (Ракеш Омпракаш Мехра / Rakeysh Omprakash Mehra) [2006, Индия, Драма, HDRip] MVO

 
Автор Сообщение

TorrentFilm ®

Пол:

Стаж: 2 года

Сообщений: 7741



Награды: Нет

Торрент-статистика

Создавать темы 28-Фев-2015 00:01

[Цитировать]

Цвет шафрана / Rang De Basanti
Страна: Индия
Жанр: Драма
Год выпуска: 2006
Продолжительность: 02:46:20
Перевод: Профессиональный (многоголосый закадровый)
Cубтитры: нет
Режиссер: Ракеш Омпракаш Мехра / Rakeysh Omprakash Mehra
В ролях: Аамир Кхан, Сиддхартх, Шарман Джоши, Кунал Капур, Атул Кулкарни, Элис Паттен, Соха Али Кхан, Стивен Макинтош, Мадхаван, Вахида Рехман
Описание: Английская журналистка Сью приезжает в Индию, чтобы сделать документальный фильм об индийских борцах за независимость во времена английской колонизации, на основании дневника своего деда. В связи с недостатком средств она вынуждена работать не с профессиональными актёрами, а со студентами. Сначала компания друзей не особо горит желанием участвовать в проекте, но со временем они всё больше и больше погружаются в проблемы того времени и постепенно понимают, что в стране мало что изменилось, что людям и сейчас приходится бороться за свои права. Вскоре они начинают собственную борьбу.
Доп. информация: Исходник BDRip (1080p) (СПАСИБО! jasinpapa)
Сведение звука: oktober (Спасибо!)
Сэмпл: http://multi-up.com/1034415
Качество видео: HDRip
Формат видео: AVI
Видео: XviD build 50, 688x288 (2.39:1), 24 fps, 1121 kbps avg
Аудио: MPEG Layer 3, 48 kHz, 2/0 (L,R) ch, 128.00 kbps avg

MediaInfo

General
Complete name : D:\Cvet.shafrana.2006.HDRip-Dego.avi
Format : AVI
Format/Info : Audio Video Interleave
File size : 1.46 GiB
Duration : 2h 46mn
Overall bit rate : 1 259 Kbps
Writing application : VirtualDubMod 1.5.10.2 (build 2540/release)
Writing library : VirtualDubMod build 2540/release
Video
ID : 0
Format : MPEG-4 Visual
Format profile : AdvancedSimple@L5
Format settings, BVOP : Yes
Format settings, QPel : No
Format settings, GMC : No warppoints
Format settings, Matrix : Custom
Codec ID : XVID
Codec ID/Hint : XviD
Duration : 2h 46mn
Bit rate : 1 122 Kbps
Width : 688 pixels
Height : 288 pixels
Display aspect ratio : 2.35
Frame rate : 24.000 fps
Resolution : 24 bits
Colorimetry : 4:2:0
Scan type : Progressive
Bits/(Pixel*Frame) : 0.236
Stream size : 1.30 GiB (89%)
Writing library : XviD 1.2.1 (UTC 2008-12-04)
Audio
ID : 1
Format : MPEG Audio
Format version : Version 1
Format profile : Layer 3
Codec ID : 55
Codec ID/Hint : MP3
Duration : 2h 46mn
Bit rate mode : Constant
Bit rate : 128 Kbps
Channel(s) : 2 channels
Sampling rate : 48.0 KHz
Resolution : 16 bits
Stream size : 152 MiB (10%)
Alignment : Aligned on interleaves
Interleave, duration : 42 ms (1.00 video frame)
Interleave, preload duration : 504 ms
Writing library : LAME3.98r
Encoding settings : -m j -V 4 -q 2 -lowpass 17 -b 128

Скриншоты

Сравнения

http://torrentfilm.net/forum/viewtopic.php?t=1809111
Мой первый.

перевод тотже.
[Профиль] [ЛС]

Создавать темы 06-Авг-2015 22:42 (спустя 5 месяцев 6 дней)

Топик был перенесен из форума Фильмы до 2014 года в форум Фильмы до 2012 года
sergej644
 
Кто просматривает тему:

Показать сообщения:    

Текущее время: Сегодня 16:37

Часовой пояс: GMT



Вы не можете начинать темы
Вы не можете отвечать на сообщения
Вы не можете редактировать свои сообщения
Вы не можете удалять свои сообщения
Вы не можете голосовать в опросах
Вы не можете прикреплять файлы к сообщениям
Вы не можете скачивать файлы