Цветы на чердаке / Flowers in the Attic (Дебора Чоу / Deborah Chow) [2014, Канада, США, драма, триллер, HDRip] VO (ViruseProject)

 
Автор Сообщение

Создавать темы 13-Июл-2014 16:36

Цветы на чердаке / Flowers in the Attic
Страна: Канада, США
Жанр: драма, триллер
Год выпуска: 2014
Продолжительность: 01:29:59
Перевод: Одноголосый закадровый ViruseProject
Cубтитры: нет
Режиссер: Дебора Чоу / Deborah Chow
В ролях: Хэзер Грэм, Эллен Бёрстин, Кирнан Шипка, Мэйсон Дай, Дилан Брюс, Ава Телек, Бо Дэниелс, Б.Дж. Харрисон и другие
Описание: Когда у Корин Доллагэнгер внезапно умер любимый муж, для неё и четырёх детей настали тяжелые времена. Она осталась без гроша, без работы и не знала, что делать. Жизнь вынудила её вернуться в дом своих родителей Фоксвортов, людей богатых, но жестоких и ханжей.
Сэмпл: http://multi-up.com/981369
Качество видео: HDRip (исходник неизвестен)
Формат видео: AVI
Видео: XviD, 947 Kbps, 672 х 368 pixels, 23.976 fps
Аудио: MP3, 128 Kbps, 2 channels, 48.0 KHz

MediaInfo

General
Complete name : D:\kirovtorrent\Flowers.in.the.Attic.2014.HDRip.700mb.avi
Format : AVI
Format/Info : Audio Video Interleave
File size : 698 MiB
Duration : 1h 29mn
Overall bit rate : 1 084 Kbps
Writing application : VirtualDubModRus 1.5.10.2 (build 2542/release)
Writing library : VirtualDubMod build 2542/release
Video
ID : 0
Format : MPEG-4 Visual
Format profile : Advanced Simple@L5
Format settings, BVOP : Yes
Format settings, QPel : No
Format settings, GMC : No warppoints
Format settings, Matrix : Default (H.263)
Codec ID : XVID
Codec ID/Hint : XviD
Duration : 1h 29mn
Bit rate : 947 Kbps
Width : 672 pixels
Height : 368 pixels
Display aspect ratio : 1.85:1
Frame rate : 23.976 fps
Color space : YUV
Chroma subsampling : 4:2:0
Bit depth : 8 bits
Scan type : Progressive
Compression mode : Lossy
Bits/(Pixel*Frame) : 0.160
Stream size : 610 MiB (87%)
Writing library : XviD 1.2.1 (UTC 2008-12-04)
Audio
ID : 1
Format : MPEG Audio
Format version : Version 1
Format profile : Layer 3
Codec ID : 55
Codec ID/Hint : MP3
Duration : 1h 29mn
Bit rate mode : Constant
Bit rate : 128 Kbps
Channel(s) : 2 channels
Sampling rate : 48.0 KHz
Compression mode : Lossy
Stream size : 82.4 MiB (12%)
Alignment : Aligned on interleaves
Interleave, duration : 42 ms (1.00 video frame)
Interleave, preload duration : 504 ms
Writing library : LAME3.99r
Encoding settings : -m s -V 4 -q 2 -lowpass 17 -b 128

Скриншот c названием фильма

Скриншоты

 
Показать сообщения:    

Текущее время: Сегодня 02:44

Часовой пояс: GMT



Вы не можете начинать темы
Вы не можете отвечать на сообщения
Вы не можете редактировать свои сообщения
Вы не можете удалять свои сообщения
Вы не можете голосовать в опросах
Вы не можете прикреплять файлы к сообщениям
Вы не можете скачивать файлы