Цветочная песенка (Светлана Муратходжаева) [1985, Рисованный мультфильм, VHSRip]

 
Автор Сообщение

TorrentFilm ®

Пол:

Стаж: 2 года

Сообщений: 7741



Награды: Нет

Торрент-статистика

Создавать темы 02-Янв-2016 00:06

[Цитировать]

Цветочная песенка
Страна: СССР
Жанр: Рисованный мультфильм
Продолжительность: 00:05:16
Год выпуска: 1985
Русские субтитры: нет
Режиссёр: Светлана Муратходжаева
Описание: Мультипликационный фильм для малышей состоит из двух сюжетов: "цветочная песенка" и "Веселый дождь"
Доп. информация: „Узбекфильм“
Раздача группы:
Качество: VHSRip
Формат: AVI
Видео: 720x552 (1.30:1), 25 fps, XviD MPEG-4 ~1999 kbps avg, 0.20 bit/pixel
Аудио: 48 kHz, MPEG Layer 3, 1 ch, ~96.00 kbps avg
Субтитры: нет

Подробные технические данные

Format : AVIFormat/Info : Audio Video InterleaveFile size : 79.5 MiBDuration : 5mn 16sOverall bit rate : 2 105 KbpsWriting application : VirtualDubMod 1.5.10.3 | www.virtualdub-fr.org || (build 2550/release)Writing library : VirtualDubMod build 2550/release
VideoID : 0Format : MPEG-4 VisualFormat profile : Simple@L1Format settings, BVOP : NoFormat settings, QPel : NoFormat settings, GMC : No warppointsFormat settings, Matrix : Default (H.263)Codec ID : XVIDCodec ID/Hint : XviDDuration : 5mn 16sBit rate : 1 999 KbpsWidth : 720 pixelsHeight : 552 pixelsDisplay aspect ratio : 4:3Frame rate : 25.000 fpsColor space : YUVChroma subsampling : 4:2:0Bit depth : 8 bitsScan type : ProgressiveCompression mode : LossyBits/(Pixel*Frame) : 0.201Stream size : 75.5 MiB (95%)Writing library : Lavc53.33.0
AudioID : 1Format : MPEG AudioFormat version : Version 1Format profile : Layer 3Codec ID : 55Codec ID/Hint : MP3Duration : 5mn 16sBit rate mode : ConstantBit rate : 96.0 KbpsChannel(s) : 1 channelSampling rate : 48.0 KHzCompression mode : LossyStream size : 3.62 MiB (5%)Alignment : Aligned on interleavesInterleave, duration : 40 ms (1.00 video frame)Interleave, preload duration : 504 ms

Скриншоты

[Профиль] [ЛС]
Кто просматривает тему:

Форум Тема Автор Размер
Отечественные мультфильмы Бал цветов (Елена Федорова) [1992, Россия, Рисованный мультфильм, VHSRip] TorrentFilm 110 MB
Фильмы (HD DVD, Blu-ray и BDRemux) Война цветов / Tajja (2006) BDRemux 1080p | L1 Russian Mafia 27.64 GB
Фильмы (HD Rips | 720p, 1080p) Война цветов / Tajja (2006) BDRip 720р | L1 Russian Mafia 4.96 GB
Зарубежные мультсериалы Герои Шести Цветов / Rokka no Yuusha [01-12 из 12] (2015) HDTVRip 720p | AlFair Studio BOSS 5.81 GB
Отечественные мультфильмы Гора самоцветов. Бессмертный (Михаил Алдашин) [2012, Анимационный фильм, DVDScreener] TorrentFilm 182 MB
Мировая классика Джон Голсуорси - Темный цветок [Евгений Терновский, 2014] Magnat 474 MB
Разная литература Ирина Березкина - Библия комнатных растений (Подарочные издания. Энциклопедии цветовода, цветоводство, 2015, PDF) Garik014 56 MB
Отечественные мультфильмы Колобок (Марина Карпова) [2012, Детский, семейный, анимационный, WEBRip] из цикла "Гора самоцветов" TorrentFilm 150 MB
Показать сообщения:    

Текущее время: Сегодня 16:40

Часовой пояс: GMT



Вы не можете начинать темы
Вы не можете отвечать на сообщения
Вы не можете редактировать свои сообщения
Вы не можете удалять свои сообщения
Вы не можете голосовать в опросах
Вы не можете прикреплять файлы к сообщениям
Вы не можете скачивать файлы