Цветок желаний (Цветок папоротника) / Серии: 1-16 из 16 (Сергей Лялин) [2015, Мелодрама, DVB]

 
Автор Сообщение

Richi Keeper ®

Пол:

Стаж: 1 год 6 месяцев

Сообщений: 57

Откуда: Томская область



Награды: Нет

Торрент-статистика

Создавать темы 15-Май-2015 14:43

[Цитировать]

Цветок желаний (Цветок папоротника)
Год выпуска: 2015
Производство: "Новая студия", кинокомпания "УПС"
Жанр: Мелодрама
Продолжительность: 00:46:00
Субтитры: Украинские (вшитые)
Режиссёр: Сергей Лялин
В ролях: Сергей Мухин, Евгения Нохрина, Анастасия Стежко, Сергей Жарков, Ада Роговцева, Екатерина Васильева, Евгений Сидихин, Елена Степанова (II), Александр Цуркан, Сергей Шеховцов, Вера Смолина, Александр Михайлов, Алёна Яковлева, Наталья Чернявская, Александр Яценко, Константин Демидов (II), Евгений Москалёв, Андрей Заводюк, Евгения Лютая, Денис Урюпин, Иван Латушко
Описание: Маленькая Глущевка – необычная деревенька, здесь есть аномальная зона, где ломаются компасы, вода течет в гору и, по легенде, зарыт бесценный клад. В поисках разгадки здешних секретов в Глущевку приезжает авантюрный геолог Тим.
Однажды ночью в таинственный лес приходят две подружки – Тоня, невеста первого парня на деревне Петра, и капризная студентка из города Ира. У обеих не ладится личная жизнь, и девушки решают отыскать волшебный папоротник, цветущий лишь одну ночь. К своему ужасу, вместо чудо-цветка они находят Тима, раненого и почти утонувшего в проклятом Ведьмином болоте…
Все раздачи сериала: Цветок желаний (Цветок папоротника)

Качество: DVB
Формат: MPEG-PS
Видео кодек: MPEG
Аудио кодек: MP2
Видео: MPEG 768х576 @ 720x576 (16:9) 25.00fps ~4472 Kbps (0.431 bit/pixel)
Аудио: MP2 48000Hz 1 channels 192 Кбит/сек
Сторонней рекламы нет!

MediaInfo

ОбщееПолное имя : F:\Цветок желаний (Цветок папоротника) DVB\Цветок желаний (Цветок папоротника) 01_серия_DVB_by_Серый1779.mpgФормат : MPEG-PSРазмер файла : 1,46 ГбайтПродолжительность : 44 м.Общий поток : 4759 Кбит/сек
ВидеоИдентификатор : 224 (0xE0)Формат : MPEG VideoВерсия формата : Version 2Профиль формата : Main@MainПараметр BVOP формата : ДаПараметр матрицы формата : По умолчаниюПараметры GOP формата : M=1, N=24Продолжительность : 44 м.Вид битрейта : ПеременныйБитрейт : 4472 Кбит/секНоминальный битрейт : 15,0 Мбит/секШирина : 720 пикс.Высота : 576 пикс.Соотношение сторон : 4:3Частота кадров : 25,000 кадр/секСтандарт вещания : PALЦветовое пространство : YUVПодвыборка цветности : 4:2:0Битовая глубина : 8 битТип развёртки : ЧересстрочнаяПорядок развёртки : Верхнее поле первоеМетод сжатия : С потерямиБит/(Пиксели*Кадры) : 0.431Размер потока : 1,38 Гбайт (94%)
АудиоИдентификатор : 192 (0xC0)Формат : MPEG AudioВерсия формата : Version 1Профиль формата : Layer 2Продолжительность : 44 м.Вид битрейта : ПостоянныйБитрейт : 192 Кбит/секКаналы : 1 каналЧастота : 48,0 КГцМетод сжатия : С потерямиРазмер потока : 60,5 Мбайт (4%)

Внимание ! Раздача ведётся путём добавления новых серий

Внимание! Раздача ведётся путём добавления новых серий; при каждом добавлении создётся новый торрент. Чтобы начать докачку новой серии, пользователям необходимо сделать следующее:
(1) остановить скачивание,
(2) удалить старый торрент у себя из клиента (старые серии удалять не надо),
(3) скачать новый торрент и запустить его у себя в клиенте вместо старого, при этом указать клиенту путь в старую папку куда и должно происходить скачивание новых серий.
Ваш клиент при этом должен произвести хеширование (проверку) старой папки (если не производит сам - помогите ему сделать это), и будет докачивать только те серии которых у вас ещё нет. Старые серии при этом не удаляются, а продолжают раздаваться!
Eсли вы уже удалили старые серии, то предотвратить повторную закачку старых серий можно, отжав галочку в соответсвующих местах при запуске нового торрента. По возможности, желательно не удалять старые серии как можно дольше чтобы релизёр не столько продолжал раздавать старые серии, а смог сконцентрироваться на новых.
ВНИМАНИЕ! ТОРРЕНТ ПЕРЕЗАЛИТ! ДОБАВЛЕНА 16-ая СЕРИИ!

Скриншоты

[Профиль] [ЛС]
Кто просматривает тему:

Форум Тема Автор Размер
Отечественные мультфильмы Бал цветов (Елена Федорова) [1992, Россия, Рисованный мультфильм, VHSRip] TorrentFilm 110 MB
Фильмы (HD DVD, Blu-ray и BDRemux) Война цветов / Tajja (2006) BDRemux 1080p | L1 Russian Mafia 27.64 GB
Фильмы (HD Rips | 720p, 1080p) Война цветов / Tajja (2006) BDRip 720р | L1 Russian Mafia 4.96 GB
Зарубежные мультсериалы Герои Шести Цветов / Rokka no Yuusha [01-12 из 12] (2015) HDTVRip 720p | AlFair Studio BOSS 5.81 GB
Отечественные мультфильмы Гора самоцветов. Бессмертный (Михаил Алдашин) [2012, Анимационный фильм, DVDScreener] TorrentFilm 182 MB
Мировая классика Джон Голсуорси - Темный цветок [Евгений Терновский, 2014] Magnat 474 MB
Разная литература Ирина Березкина - Библия комнатных растений (Подарочные издания. Энциклопедии цветовода, цветоводство, 2015, PDF) Garik014 56 MB
Отечественные мультфильмы Колобок (Марина Карпова) [2012, Детский, семейный, анимационный, WEBRip] из цикла "Гора самоцветов" TorrentFilm 150 MB
Показать сообщения:    

Текущее время: Сегодня 04:27

Часовой пояс: GMT



Вы не можете начинать темы
Вы не можете отвечать на сообщения
Вы не можете редактировать свои сообщения
Вы не можете удалять свои сообщения
Вы не можете голосовать в опросах
Вы не можете прикреплять файлы к сообщениям
Вы не можете скачивать файлы