Цветок желаний (Цветок папоротника) / Серии: 1-6 из 16 (Сергей Лялин) [2015, Мелодрама, НDTVRip]

 
Автор Сообщение

Richi Keeper ®

Пол:

Стаж: 1 год 10 месяцев

Сообщений: 57

Откуда: Томская область



Награды: Нет

Торрент-статистика

Создавать темы 14-Май-2015 19:14

[Цитировать]

Цветок желаний (Цветок папоротника) Год выпуска: 2015
Производство: Кинокомпания "Русское"
Жанр: Мелодрама
Продолжительность: 00:46:00
Субтитры: нет
Режиссёр: Сергей Лялин
В ролях: Сергей Мухин, Евгения Нохрина, Анастасия Стежко, Сергей Жарков, Ада Роговцева, Екатерина Васильева, Евгений Сидихин, Елена Степанова (II), Александр Цуркан, Сергей Шеховцов, Вера Смолина, Александр Михайлов, Алёна Яковлева, Наталья Чернявская, Александр Яценко, Константин Демидов (II), Евгений Москалёв, Андрей Заводюк, Евгения Лютая, Денис Урюпин, Иван Латушко
Описание: Маленькая Глущевка – необычная деревенька, здесь есть аномальная зона, где ломаются компасы, вода течет в гору и, по легенде, зарыт бесценный клад. В поисках разгадки здешних секретов в Глущевку приезжает авантюрный геолог Тим.
Однажды ночью в таинственный лес приходят две подружки – Тоня, невеста первого парня на деревне Петра, и капризная студентка из города Ира. У обеих не ладится личная жизнь, и девушки решают отыскать волшебный папоротник, цветущий лишь одну ночь. К своему ужасу, вместо чудо-цветка они находят Тима, раненого и почти утонувшего в проклятом Ведьмином болоте…
Качество: HDTVRip
Формат: AVI
Видео кодек: XviD
Аудио кодек: AC3
Видео: 720x400 (4.20:0), 25 fps, XviD build 73 ~1541 kbps avg, 0.210 bit/pixel
Аудио: 48 kHz, AC3 Dolby Digital, 2/0 (L,R) ch, ~192.00 kbps avg

MI

General
Complete name : Y:\раздачи\Цветок папоротника.2015.HDTVRip.Files-x\01.Цветок папоротника.2015.HDTVRip.Files-x.avi
Format : AVI
Format/Info : Audio Video Interleave
File size : 553 MiB
Duration : 45mn 8s
Overall bit rate : 1 712 Kbps
Writing application : VirtualDubMod 1.5.10.3 | www.virtualdub-fr.org || (build 2550/release)
Writing library : VirtualDubMod build 2550/release
Video
ID : 0
Format : MPEG-4 Visual
Format profile : Advanced Simple@L5
Format settings, BVOP : 1
Format settings, QPel : No
Format settings, GMC : No warppoints
Format settings, Matrix : Custom
Codec ID : XVID
Codec ID/Hint : XviD
Duration : 45mn 8s
Bit rate : 1 510 Kbps
Width : 720 pixels
Height : 400 pixels
Display aspect ratio : 16:9
Frame rate : 25.000 fps
Color space : YUV
Chroma subsampling : 4:2:0
Bit depth : 8 bits
Scan type : Progressive
Compression mode : Lossy
Bits/(Pixel*Frame) : 0.210
Stream size : 488 MiB (88%)
Writing library : XviD 73
Audio
ID : 1
Format : AC-3
Format/Info : Audio Coding 3
Mode extension : CM (complete main)
Format settings, Endianness : Big
Codec ID : 2000
Duration : 45mn 8s
Bit rate mode : Constant
Bit rate : 192 Kbps
Channel(s) : 2 channels
Channel positions : Front: L R
Sampling rate : 48.0 KHz
Bit depth : 16 bits
Compression mode : Lossy
Stream size : 62.0 MiB (11%)
Alignment : Split accross interleaves
Interleave, duration : 40 ms (1.00 video frame)
Interleave, preload duration : 500 ms

Внимание! Раздача ведётся путём добавления новых серий!

Внимание! Раздача ведётся путём добавления новых серий; при каждом добавлении создётся новый торрент.
Чтобы начать докачку новой серии, пользователям необходимо сделать следующее:
1) остановить скачивание
2) удалить старый торрент у себя из клиента (старые серии удалять не надо)
3) скачать новый торрент и запустить его у себя в клиенте вместо старого, при этом указать клиенту путь в старую папку куда и должно происходить скачивание новых серий.
Ваш клиент при этом должен произвести хеширование (проверку) старой папки (если не производит сам - помогите ему сделать это), и будет докачивать только те серии которых у вас ещё нет. Старые серии при этом не удаляются, а продолжают раздаваться!
Eсли вы уже удалили старые серии, то предотвратить повторную закачку старых серий можно, отжав галочку в соответствовавших местах при запуске нового торрента.

Скриншоты

Сравнение с украинским рипом

http://screenshotcomparison.com/comparison/126399/picture:2
[Профиль] [ЛС]
Кто просматривает тему:

Форум Тема Автор Размер
Отечественные мультфильмы Бал цветов (Елена Федорова) [1992, Россия, Рисованный мультфильм, VHSRip] TorrentFilm 110 MB
Фильмы (HD DVD, Blu-ray и BDRemux) Война цветов / Tajja (2006) BDRemux 1080p | L1 Russian Mafia 27.64 GB
Фильмы (HD Rips | 720p, 1080p) Война цветов / Tajja (2006) BDRip 720р | L1 Russian Mafia 4.96 GB
Зарубежные мультсериалы Герои Шести Цветов / Rokka no Yuusha [01-12 из 12] (2015) HDTVRip 720p | AlFair Studio BOSS 5.81 GB
Отечественные мультфильмы Гора самоцветов. Бессмертный (Михаил Алдашин) [2012, Анимационный фильм, DVDScreener] TorrentFilm 182 MB
Мировая классика Джон Голсуорси - Темный цветок [Евгений Терновский, 2014] Magnat 474 MB
Разная литература Ирина Березкина - Библия комнатных растений (Подарочные издания. Энциклопедии цветовода, цветоводство, 2015, PDF) Garik014 56 MB
Отечественные мультфильмы Колобок (Марина Карпова) [2012, Детский, семейный, анимационный, WEBRip] из цикла "Гора самоцветов" TorrentFilm 150 MB
Показать сообщения:    

Текущее время: Сегодня 14:13

Часовой пояс: GMT



Вы не можете начинать темы
Вы не можете отвечать на сообщения
Вы не можете редактировать свои сообщения
Вы не можете удалять свои сообщения
Вы не можете голосовать в опросах
Вы не можете прикреплять файлы к сообщениям
Вы не можете скачивать файлы