Царь (Павел Лунгин) [2009, Россия, драма, BDRip 1080p]

 
Автор Сообщение

TorrentFilm ®

Пол:

Стаж: 2 года

Сообщений: 7741



Награды: Нет

Торрент-статистика

Создавать темы 02-Янв-2016 00:03

[Цитировать]

Царь«Грозный царь - грозное время» Жанр: Драма
Студия: "Профит-Синема", "СПЛ-Фильм"
Год выпуска: 2009
Продолжительность: 02:03:15
Cубтитры: нет
Режиссёр: Павел Лунгин
В ролях: Петр Мамонов, Олег Янковский, Юрий Кузнецов, Александр Домогаров, Анастасия Донцова, Алексей Макаров, Александр Негодайлов, Иван Охлобыстин, Алексей Франдетти, Вилле Хаапасало, Анвар Халилулаев, Рамиля Искандер, Марго Силкина, Александр Ильин, Андрей Невраев, Олег Сурнов, Анна Кашникова, Геннадий Макоев...
Описание: 1565 год. Темные времена. Правление Ивана Грозного. Русь растерзана голодом и ливонской войной. Во всем мерещатся правителю измена и предательство. Его верные слуги, опричники, залили страну кровью. В каждом готовы они увидеть государева врага. Главный закон для них — царь. Единственный, кто пошел против царской воли и опричных злодейств, — митрополит Филипп, верный друг детства Ивана Грозного. Он возвысил голос свой и принес себя в жертву. Это противостояние расскажет о том, на что была способна Русь и в падении и в величии духа...

Качество видео: BDRip 1080р
Формат видео: MKV
Видео: MPEG-4 AVC Video, 1920 х 816 (2,35:1), 23,976 кадра/сек, 10,2 Мбит/сек, 0.272 бит/пиксель
Аудио: Russian, DTS, 48,0 КГц, 1509 Кбит/сек, 6 каналов (Front: L C R, Side: L R, LFE)

Знаете ли вы, что...

• Фильм снимали в Суздале, где специально для этого построили декорацию опричного дворца. Дальнейшая судьба декорации вызвала в городе скандал: никто не хотел брать на себя траты по её демонтажу.
• Рабочим названием фильма долго значилось «Иван Грозный и митрополит Филипп». Но в последний момент его всё-таки сократили до более простого и понятного широкой публике и иностранным зрителям.
• Главная роль изначально писалась в расчёте на Петра Мамонова. Как заметил Лунгин, ещё на съёмках совместного фильма «Остров» он увидел в Мамонове противоречивого русского правителя.
• Роль митрополита Филиппа - последняя роль в кино Олега Янковского. Актер скончался 20 мая 2009 года, три дня спустя после показа фильма на Каннском фестивале.
• События в фильме разворачиваются в период между 1565 и 1568 годами. Ивану IV, родившемуся в 1530 году, в этот момент 35-38 лет. Петру Мамонову, исполнившему роль царя, на момент съемок было 57-58 лет.

MediaInfo

Общее
Уникальный идентификатор : 202414646807310766816943410871757047629 (0x9847A4982AA01151BEF17F8FFFD2074D)
Полное имя : D:\torrent\Царь 1080р.mkv
Формат : Matroska
Версия формата : Version 2
Размер файла : 10,1 Гбайт
Продолжительность : 2 ч. 3 м.
Общий поток : 11,7 Мбит/сек
Название фильма : Tcar (2009) - Release for HDCLUB
Дата кодирования : UTC 2009-12-10 07:21:37
Программа кодирования : mkvmerge v2.9.8 ('C'est le bon') built on Aug 13 2009 12:49:06
Библиотека кодирования : libebml v0.7.7 + libmatroska v0.8.1
Видео
Идентификатор : 1
Формат : AVC
Формат/Информация : Advanced Video Codec
Профиль формата : High@L4.1
Параметр CABAC формата : Да
Параметр ReFrames формата : 5 кадров
Идентификатор кодека : V_MPEG4/ISO/AVC
Продолжительность : 2 ч. 3 м.
Битрейт : 10,2 Мбит/сек
Ширина : 1920 пикселей
Высота : 816 пикселей
Соотношение сторон : 2,35:1
Режим частоты кадров : Постоянный
Частота кадров : 23,976 кадра/сек
Цветовое пространство : YUV
Субдискретизация насыщенности : 4:2:0
Битовая глубина : 8 бит
Тип развёртки : Прогрессивная
Бит/(Пиксели*Кадры) : 0.272
Размер потока : 8,60 Гбайт (85%)
Заголовок : Release for HDCLUB
Библиотека кодирования : x264 core 78 r1309M 4d77de8
Настройки программы : cabac=1 / ref=5 / deblock=1:-1:-2 / analyse=0x3:0x113 / me=umh / subme=9 / psy=1 / psy_rd=1.0:0.0 / mixed_ref=1 / me_range=32 / chroma_me=1 / trellis=2 / 8x8dct=1 / cqm=0 / deadzone=21,11 / chroma_qp_offset=-2 / threads=12 / nr=0 / decimate=0 / mbaff=0 / constrained_intra=0 / bframes=6 / b_pyramid=0 / b_adapt=2 / b_bias=0 / direct=3 / wpredb=1 / keyint=250 / keyint_min=25 / scenecut=40 / rc=2pass / mbtree=0 / bitrate=10217 / ratetol=1.0 / qcomp=0.60 / qpmin=10 / qpmax=51 / qpstep=4 / cplxblur=20.0 / qblur=0.5 / ip_ratio=1.40 / pb_ratio=1.30 / aq=1:0.80
Язык : Russian
Default : Нет
Forced : Нет
Аудио
Идентификатор : 2
Формат : DTS
Формат/Информация : Digital Theater Systems
Режим : 16
Параметр Endianness формата : Big
Идентификатор кодека : A_DTS
Продолжительность : 2 ч. 3 м.
Вид битрейта : Постоянный
Битрейт : 1509 Кбит/сек
Каналы : 6 каналов
Расположение каналов : Front: L C R, Side: L R, LFE
Частота : 48,0 КГц
Битовая глубина : 24 бит
Метод сжатия : С потерями
Размер потока : 1,30 Гбайт (13%)
Заголовок : DTS 5.1 @ 1536 kbps
Язык : Russian
Default : Да
Forced : Нет

Скриншот c названием фильма

Скриншоты

[Профиль] [ЛС]
Показать сообщения:    

Текущее время: Сегодня 10:17

Часовой пояс: GMT



Вы не можете начинать темы
Вы не можете отвечать на сообщения
Вы не можете редактировать свои сообщения
Вы не можете удалять свои сообщения
Вы не можете голосовать в опросах
Вы не можете прикреплять файлы к сообщениям
Вы не можете скачивать файлы