Царь (2009) BDRip 1080p

 
Автор Сообщение

sergej644 ®

Пол:

Стаж: 4 года 11 месяцев

Сообщений: 6040

Откуда: Soviet Union



Награды: Нет

Торрент-статистика

Создавать темы 27-Янв-2015 04:18

[Цитировать]

Информация о фильме
Название: Царь
Год выхода: 2009
Жанр: Историческая драма
Режиссер: Павел Лунгин
В ролях: Петр Мамонов, Олег Янковский, Юрий Кузнецов, Александр Домогаров, Анастасия Донцова, Алексей Макаров, Александр Негодайлов, Иван Охлобыстин, Алексей Франдетти, Вилле Хаапасало...
О фильме:
1565 год. Темные времена. Правление Ивана Грозного. Русь растерзана голодом и ливонской войной. Во всем мерещатся правителю измена и предательство. Его верные слуги, опричники, залили страну кровью. В каждом готовы они увидеть государева врага. Главный закон для них — царь. Единственный, кто пошел против царской воли и опричных злодейств, — митрополит Филипп, верный друг детства Ивана Грозного. Он возвысил голос свой и принес себя в жертву. Это противостояние расскажет о том, на что была способна Русь и в падении и в величии духа...

Страна: Россия
Продолжительность: 02:03:15
Перевод: Оригинал
Файл
Кодек: H264
Качество: BDRip 1080p
Видео: 1920x816, 4623 Kbps, 23.976 fps
Звук: 48 kHz, AC3, 6c, 448 kbps
Субтитры: Нет
Семпл

MI

Общее
Формат : Matroska
Версия формата : Version 2
Размер файла : 4,36 Гбайт
Продолжительность : 2 ч. 3 м.
Общий поток : 5062 Кбит/сек
Название фильма : Царь (2009) BDRip 1080p от Dimok
Дата кодирования : UTC 2011-12-18 06:08:27
Программа кодирования : mkvmerge v5.1.0 ('And so it goes') built on Nov 28 2011 23:58:28
Библиотека кодирования : libebml v1.2.3 + libmatroska v1.3.0
Видео
Идентификатор : 1
Формат : AVC
Формат/Информация : Advanced Video Codec
Профиль формата : High@L4.1
Параметр CABAC формата : Да
Параметр ReFrames формата : 5 кадров
Идентификатор кодека : V_MPEG4/ISO/AVC
Продолжительность : 2 ч. 3 м.
Битрейт : 4623 Кбит/сек
Ширина : 1920 пикселей
Высота : 816 пикселей
Соотношение сторон : 2,35:1
Частота кадров : 23,976 кадра/сек
Цветовое пространство : YUV
Субдискретизация насыщенности : 4:2:0
Битовая глубина : 8 бит
Тип развёртки : Прогрессивная
Бит/(Пиксели*Кадры) : 0.123
Размер потока : 3,89 Гбайт (89%)
Библиотека кодирования : x264 core 92 r1510 33d382a
Настройки программы : cabac=1 / ref=5 / deblock=1:0:0 / analyse=0x3:0x133 / me=umh / subme=10 / psy=1 / psy_rd=1.00:0.10 / mixed_ref=1 / me_range=32 / chroma_me=1 / trellis=2 / 8x8dct=1 / cqm=0 / deadzone=21,11 / fast_pskip=0 / chroma_qp_offset=-3 / threads=6 / sliced_threads=0 / nr=0 / decimate=1 / interlaced=0 / constrained_intra=0 / bframes=6 / b_pyramid=2 / b_adapt=2 / b_bias=0 / direct=3 / wpredb=1 / wpredp=2 / keyint=240 / keyint_min=24 / scenecut=40 / intra_refresh=0 / rc_lookahead=60 / rc=2pass / mbtree=1 / bitrate=4623 / ratetol=1.0 / qcomp=0.60 / qpmin=10 / qpmax=51 / qpstep=4 / cplxblur=20.0 / qblur=0.5 / ip_ratio=1.40 / aq=1:1.00
Язык : Russian
Аудио
Идентификатор : 2
Формат : AC-3
Формат/Информация : Audio Coding 3
Расширение режима : CM (complete main)
Идентификатор кодека : A_AC3
Продолжительность : 2 ч. 3 м.
Вид битрейта : Постоянный
Битрейт : 448 Кбит/сек
Каналы : 6 каналов
Расположение каналов : Front: L C R, Side: L R, LFE
Частота : 48,0 КГц
Битовая глубина : 16 бит
Метод сжатия : С потерями
Размер потока : 395 Мбайт (9%)
Заголовок : Оригинал
Язык : Russian
[Профиль] [ЛС]
Показать сообщения:    

Текущее время: Сегодня 10:53

Часовой пояс: GMT



Вы не можете начинать темы
Вы не можете отвечать на сообщения
Вы не можете редактировать свои сообщения
Вы не можете удалять свои сообщения
Вы не можете голосовать в опросах
Вы не можете прикреплять файлы к сообщениям
Вы не можете скачивать файлы