Царь (Павел Лунгин) [2009, Россия, драма, BDRip 720p]

 
Автор Сообщение

painkiller ®

Стаж: 2 года 3 месяца

Сообщений: 582



Награды: Нет

Торрент-статистика

Создавать темы 14-Авг-2014 09:22

[Цитировать]

Царь
Страна: Россия
Студия: "Профит-Синема", "СПЛ-Фильм"
Жанр: драма
Год выпуска: 2009
Продолжительность: 02:03:17
Cубтитры: нет
Режиссер: Павел Лунгин
В ролях: Петр Мамонов, Олег Янковский, Юрий Кузнецов, Александр Домогаров, Анастасия Донцова, Алексей Макаров, Иван Охлобыстин, Алексей Франдетти, Вилле Хаапасало, Анвар Халилулаев, Рамиля Искандер, Марго Силкина, Андрей Невраев, Олег Сурнов, Анна Кашникова, Александр Ильин младший, Олег Соколов, Алексей Ильин, Юрий Соколов, Эдуард Федашко, Сергей Гармаш (текст за кадром)
Описание: 1565 год, темные времена, правление Ивана Грозного. Русь растерзана голодом и Ливонской войной. Во всём и во всех мерещатся правителю измена и предательство. Его верные слуги, опричники, залили страну кровью. В каждом готовы они увидеть государева врага. Главный закон для них — царь. Единственный, кто пошел против царской воли и опричных злодейств, — митрополит Филипп, верный друг детства Ивана Грозного. Фильм начинается с момента, когда Русская Православная Церковь после ухода Афанасия остаётся без митрополита, и Иван IV призывает к себе друга детства, игумена Соловецкого монастыря Филиппа Колычёва (в фильме эта фамилия произносится как Ко́лычев). Фильм разбит на четыре части: "Молитва царя"; "Война царя"; "Гнев царя"; "Веселье царя".
Доп. информация:
Сценарий: Алексей Иванов, Павел Лунгин
Оператор: Том Стерн
Художники: Сергей Иванов, Екатерина Дыминская, Наталья Дзюбенко
Композитор: Юрий Красавин
Награды: российская народная кинопремия «Жорж» (2010) - победитель в номинации "Лучшая российская драма"; премия "Ника" (2010) - победитель в номинациях "Лучшая мужская роль" (Олег Янковский), "Лучшая работа художника-постановщика" (Сергей Иванов)
Ограничения на просмотр: зрителям, достигшим 14 лет

Тип релиза: BDRip
Контейнер: MKV
Видео кодек: H.264
Аудио кодек: DTS
Видео: 1280х544p (2.35:1), 23.976 fps, AVC x264, 6094 kbps, 0.37 bit/pix
Аудио: Русский 48 kHz, DTS 5.1, 1510 kbps

MediaInfo

Уникальный идентификатор : 217368322085628679988862490070593333443 (0xA3879DB53ABE254ABCCE720E445468C3)
Полное имя : F:\Car`\Tcar.2009.x264.BDRip.720p.mkv
Формат : Matroska
Версия формата : Version 2
Размер файла : 6,55 Гбайт
Продолжительность : 2 ч. 3 м.
Общий поток : 7604 Кбит/сек
Дата кодирования : UTC 2009-12-02 06:38:08
Программа кодирования : mkvmerge v2.9.8 ('C'est le bon') built on Aug 13 2009 12:49:06
Библиотека кодирования : libebml v0.7.7 + libmatroska v0.8.1
Видео
Идентификатор : 1
Формат : AVC
Формат/Информация : Advanced Video Codec
Профиль формата : High@L4.1
Параметр CABAC формата : Да
Параметр ReFrames формата : 6 кадров
Идентификатор кодека : V_MPEG4/ISO/AVC
Продолжительность : 2 ч. 3 м.
Битрейт : 6094 Кбит/сек
Ширина : 1280 пикселей
Высота : 544 пикселя
Соотношение сторон : 2,35:1
Частота кадров : 23,976 кадра/сек
Цветовое пространство : YUV
Субдискретизация насыщенности : 4:2:0
Битовая глубина : 8 бит
Тип развёртки : Прогрессивная
Бит/(Пиксели*Кадры) : 0.365
Размер потока : 5,12 Гбайт (78%)
Заголовок : Release for HDCLUB
Библиотека кодирования : x264 core 78 r1309M 4d77de8
Настройки программы : cabac=1 / ref=6 / deblock=1:-1:-2 / analyse=0x3:0x113 / me=umh / subme=9 / psy=1 / psy_rd=1.0:0.0 / mixed_ref=1 / me_range=32 / chroma_me=1 / trellis=2 / 8x8dct=1 / cqm=0 / deadzone=21,11 / chroma_qp_offset=-2 / threads=12 / nr=0 / decimate=0 / mbaff=0 / constrained_intra=0 / bframes=6 / b_pyramid=0 / b_adapt=2 / b_bias=0 / direct=3 / wpredb=1 / keyint=250 / keyint_min=25 / scenecut=40 / rc=2pass / mbtree=0 / bitrate=6094 / ratetol=1.0 / qcomp=0.60 / qpmin=10 / qpmax=51 / qpstep=4 / cplxblur=20.0 / qblur=0.5 / ip_ratio=1.40 / pb_ratio=1.30 / aq=1:0.80
Язык : English
Аудио
Идентификатор : 2
Формат : DTS
Формат/Информация : Digital Theater Systems
Идентификатор кодека : A_DTS
Продолжительность : 2 ч. 3 м.
Вид битрейта : Постоянный
Битрейт : 1510 Кбит/сек
Каналы : 6 каналов
Расположение каналов : Front: L C R, Side: L R, LFE
Частота : 48,0 КГц
Битовая глубина : 24 бит
Метод сжатия : С потерями
Размер потока : 1,30 Гбайт (20%)
Заголовок : DTS 5.1 @ 1536 kbps
Язык : Russian

Скриншоты

[Профиль] [ЛС]
Показать сообщения:    

Текущее время: Сегодня 21:01

Часовой пояс: GMT



Вы не можете начинать темы
Вы не можете отвечать на сообщения
Вы не можете редактировать свои сообщения
Вы не можете удалять свои сообщения
Вы не можете голосовать в опросах
Вы не можете прикреплять файлы к сообщениям
Вы не можете скачивать файлы