Царь сновидений / Joseph: King of Dreams (2000) WEB-DL 720p | D, P2, A

 
Автор Сообщение

Russian Mafia ®

Пол:

Стаж: 1 год 8 месяцев

Сообщений: 4246



Награды: 10 (Подробнее)

Top Releaser 4 (Количество: 1) Top Releaser 2 (Количество: 1) Mega Seeder 1 (Количество: 1)
Торрент-статистика

Создавать темы 15-Сен-2015 10:25

[Цитировать]

Информация о фильме
Название: Царь сновидений
Оригинальное название: Joseph: King of Dreams
Год выхода: 2000
Жанр: мультфильм, мюзикл, драма, приключения, семейный, биография, история
Режиссер: Роб ЛаДука, Роберт С. Рамирез
В ролях: Бен Аффлек, Марк Хэмилл, Ричард Херд, Морин МакГоверн, Джоди Бенсон, Джудит Лайт, Джеймс Экхаус, Ричард МакГонагл, Дэвид Кэмпбелл, Стивен Уэбер
Описание: Cоздатели полнометражного мультфильма-блокбастера "Принц Египта", получившего премию Американской Киноакадемии "Оскар", представляют Вам новую, замечательную, анимационную картину для всей семьи. Компания Стивена Спилберга "DreamWorks" неизменно радует нас восхитительными мультфильмами: "Муравей Антц", "Дорога на Эльдорадо" и лауреат "Оскара", непревзойденный "Шрек". И, надо заметить, что это чудесная картина - не исключение! Как всегда Вас ждет прекрасная музыка, великолепная анимация и потрясающая история! Рассказ пойдет о чудо-юноше, который наделен удивительным даром видеть будущее и объяснять сны...

Страна: США
Продолжительность: 01:11:38
Перевод #1: Профессиональный (Дублированный) (По заказу "Первого канала")
Перевод #2: Профессиональный (Двухголосый, Закадровый) (R5)
Перевод #3: Авторский (Одноголосый, Закадровый) (Юрий Живов)
Перевод #4: Голландский
Перевод #5: Итальянский
Перевод #6: Португальский
Перевод #7: Английский (Оригинал)
Файл
Формат: MKV
Качество: WEB-DL 720p (Источник: Joseph.King.of.Dreams.2000.720p.WEB-DL.AAC2.0.H.264-BS)
Видео: 1280x718 (16:9), 25.000 fps, 4155 kbps, 0.181 bit/pixel
Аудио #1: AC-3, 2 ch, 192 kbps (Дублированный)
Аудио #2: AC-3, 6 ch, 448 kbps (Двухголосый)
Аудио #3: AC-3, 6 ch, 448 kbps (Юрий Живов)
Аудио #4: AC-3, 6 ch, 448 kbps (Голландский)
Аудио #5: AC-3, 6 ch, 448 kbps (Итальянский)
Аудио #6: AC-3, 2 ch, 192 kbps (Португальский)
Аудио #7: AC-3, 6 ch, 448 kbps (Английский Оригинал)
Субтитры: Русские (Полные), Голландские (Полные), Итальянские (Форсированные), Английские (SDH)

Скриншоты


MediaInfo

General
Unique ID : 197940116498720634589694203675676124871 (0x94E9E137B11564E5928056EF3BC626C7)
Complete name : Joseph.King.of.Dreams.2000.WEB.DL.720p.D.P2.A.mkv
Format : Matroska
Format version : Version 2
File size : 3.46 GiB
Duration : 1h 11mn
Overall bit rate : 6 916 Kbps
Movie name : Царь сновидений / Joseph: King of Dreams (2000) WEB-DL 720p
Encoded date : UTC 2015-09-12 13:17:31
Writing application : mkvmerge v5.6.0 ('Kenya Kane') built on May 27 2012 16:44:04
Writing library : libebml v1.2.3 + libmatroska v1.3.0
Attachements : Cover.jpg
Video
ID : 1
Format : AVC
Format/Info : Advanced Video Codec
Format profile : High@L3.1
Format settings, CABAC : No
Format settings, ReFrames : 2 frames
Codec ID : V_MPEG4/ISO/AVC
Duration : 1h 11mn
Bit rate : 4 155 Kbps
Width : 1 280 pixels
Height : 718 pixels
Display aspect ratio : 16:9
Frame rate mode : Constant
Frame rate : 25.000 fps
Color space : YUV
Chroma subsampling : 4:2:0
Bit depth : 8 bits
Scan type : Progressive
Bits/(Pixel*Frame) : 0.181
Stream size : 2.08 GiB (60%)
Title : Царь сновидений / Joseph: King of Dreams (2000) WEB-DL 720p
Language : English
Default : Yes
Forced : No
Color primaries : BT.709
Transfer characteristics : BT.709
Matrix coefficients : BT.709
Color range : Limited
Audio #1
ID : 2
Format : AC-3
Format/Info : Audio Coding 3
Mode extension : CM (complete main)
Format settings, Endianness : Big
Codec ID : A_AC3
Duration : 1h 11mn
Bit rate mode : Constant
Bit rate : 192 Kbps
Channel(s) : 2 channels
Channel positions : Front: L R
Sampling rate : 48.0 KHz
Bit depth : 16 bits
Compression mode : Lossy
Stream size : 98.4 MiB (3%)
Title : Дублированный 2.0 (По заказу "Первого канала")
Language : Russian
Default : Yes
Forced : No
Audio #2
ID : 3
Format : AC-3
Format/Info : Audio Coding 3
Mode extension : CM (complete main)
Format settings, Endianness : Big
Codec ID : A_AC3
Duration : 1h 11mn
Bit rate mode : Constant
Bit rate : 448 Kbps
Channel(s) : 6 channels
Channel positions : Front: L C R, Side: L R, LFE
Sampling rate : 48.0 KHz
Bit depth : 16 bits
Compression mode : Lossy
Stream size : 230 MiB (6%)
Title : Двухголосый 5.1 (R5)
Language : Russian
Default : No
Forced : No
Audio #3
ID : 4
Format : AC-3
Format/Info : Audio Coding 3
Mode extension : CM (complete main)
Format settings, Endianness : Big
Codec ID : A_AC3
Duration : 1h 11mn
Bit rate mode : Constant
Bit rate : 448 Kbps
Channel(s) : 6 channels
Channel positions : Front: L C R, Side: L R, LFE
Sampling rate : 48.0 KHz
Bit depth : 16 bits
Compression mode : Lossy
Stream size : 230 MiB (6%)
Title : Юрий Живов 5.1
Language : Russian
Default : No
Forced : No
Audio #4
ID : 5
Format : AC-3
Format/Info : Audio Coding 3
Mode extension : CM (complete main)
Format settings, Endianness : Big
Codec ID : A_AC3
Duration : 1h 11mn
Bit rate mode : Constant
Bit rate : 448 Kbps
Channel(s) : 6 channels
Channel positions : Front: L C R, Side: L R, LFE
Sampling rate : 48.0 KHz
Bit depth : 16 bits
Compression mode : Lossy
Stream size : 230 MiB (6%)
Title : Голландский 5.1
Language : Dutch
Default : No
Forced : No
Audio #5
ID : 6
Format : AC-3
Format/Info : Audio Coding 3
Mode extension : CM (complete main)
Format settings, Endianness : Big
Codec ID : A_AC3
Duration : 1h 11mn
Bit rate mode : Constant
Bit rate : 448 Kbps
Channel(s) : 6 channels
Channel positions : Front: L C R, Side: L R, LFE
Sampling rate : 48.0 KHz
Bit depth : 16 bits
Compression mode : Lossy
Stream size : 230 MiB (6%)
Title : Итальянский 5.1
Language : Italian
Default : No
Forced : No
Audio #6
ID : 7
Format : AC-3
Format/Info : Audio Coding 3
Mode extension : CM (complete main)
Format settings, Endianness : Big
Codec ID : A_AC3
Duration : 1h 11mn
Bit rate mode : Constant
Bit rate : 192 Kbps
Channel(s) : 2 channels
Channel positions : Front: L R
Sampling rate : 48.0 KHz
Bit depth : 16 bits
Compression mode : Lossy
Stream size : 98.4 MiB (3%)
Title : Португальский 2.0
Language : Portuguese
Default : No
Forced : No
Audio #7
ID : 8
Format : AC-3
Format/Info : Audio Coding 3
Mode extension : CM (complete main)
Format settings, Endianness : Big
Codec ID : A_AC3
Duration : 1h 11mn
Bit rate mode : Constant
Bit rate : 448 Kbps
Channel(s) : 6 channels
Channel positions : Front: L C R, Side: L R, LFE
Sampling rate : 48.0 KHz
Bit depth : 16 bits
Compression mode : Lossy
Stream size : 230 MiB (6%)
Title : Английский 5.1 (Оригинал)
Language : English
Default : No
Forced : No
Text #1
ID : 9
Format : UTF-8
Codec ID : S_TEXT/UTF8
Codec ID/Info : UTF-8 Plain Text
Title : Русские (Полные)
Language : Russian
Default : No
Forced : No
Text #2
ID : 10
Format : VobSub
Muxing mode : zlib
Codec ID : S_VOBSUB
Codec ID/Info : The same subtitle format used on DVDs
Title : Голландские (Полные)
Language : Dutch
Default : No
Forced : No
Text #3
ID : 11
Format : VobSub
Muxing mode : zlib
Codec ID : S_VOBSUB
Codec ID/Info : The same subtitle format used on DVDs
Title : Итальянские (Форсированные)
Language : Italian
Default : No
Forced : No
Text #4
ID : 12
Format : UTF-8
Codec ID : S_TEXT/UTF8
Codec ID/Info : UTF-8 Plain Text
Title : Английские (SDH)
Language : English
Default : No
Forced : No
[Профиль] [ЛС]
Кто просматривает тему:

Показать сообщения:    

Текущее время: Сегодня 18:21

Часовой пояс: GMT



Вы не можете начинать темы
Вы не можете отвечать на сообщения
Вы не можете редактировать свои сообщения
Вы не можете удалять свои сообщения
Вы не можете голосовать в опросах
Вы не можете прикреплять файлы к сообщениям
Вы не можете скачивать файлы