Царство небесное / Kingdom of Heaven (2005) BDRip 1080p | Director's cut | D, P, A

 
Автор Сообщение

Russian Mafia ®

Пол:

Стаж: 1 год 8 месяцев

Сообщений: 4257



Награды: 10 (Подробнее)

Mega Seeder 3 (Количество: 1) Top Releaser 4 (Количество: 1) Top Releaser 2 (Количество: 1)
Торрент-статистика

Создавать темы 14-Окт-2016 18:02

[Цитировать]

Информация о фильме
Название: Царство небесное
Оригинальное название: Kingdom of Heaven
Год выхода: 2005
Жанр: историческая драма, приключения, история
Режиссер: Ридли Скотт
В ролях: Орландо Блум, Ева Грин, Лайам Нисон, Дэвид Тьюлис, Джереми Айронс, Эрик Эбони, Натали Кокс, Филип Гленистер, Мартин Хэнкок, Бронсон Уэбб
О фильме:
Юный оружейник Бэлиан вынужден бежать со своей родины. Он присоединяется к отряду крестоносцев, которым руководит его отец. Но, в одной из битв, отец получает тяжелую рану и перед смертью присваивает своему сыну сан рыцаря, и тот клянется в верности королю Иерусалима. В скором времени Бэлиан прославляется как отважный и опытный воитель. Красивый и честный юноша привлекает внимание сестры короля, Сибилы, но тем самым получает и смертельного врага — Гая де Лусиньяна, мужа Сибилы и предводителя ордена тамплиеров. Ослепленный завистью вместе со своими беспощадными рыцарями Гай нападает на мусульманский караван, охранять который, поставлен храбрый Бэлиан, и так провоцирует войну с огромной армией великого султана Саладина. Умирающий король вместе с преданным Бэлианом выводит полки в бой. Этой битвы они не могут выиграть, но это — только начало. Героя еще ждет множество битв, приключений и испытаний, пока с одуваемых ветрами пустыни крепостей до дворцов владык Франции распространится известие о великом Бэлиане из Ибелина — легендарного защитника Иерусалима, освободившего Святой город от тирании.

Страна: США, Испания
Продолжительность: 03:09:34
Перевод: #1: Русский: Многоголосый профессиональный закадровый, |Киномания|
#2: Русский: Одноголосый закадровый (авторский), |В.Королев|
#3: Русский: Одноголосый закадровый (авторский), |А.Гаврилов|
#4: Украинский: Дубляж, (1+1) - Со вставками |Любительского двухголосого|
#5: Русский: Дубляж, Со вставками Многоголосого профессиональный |Киномании|
#6: Русский: Одноголосый закадровый (авторский), |Ю. Живов|
#7: Английский: оригинал-

MediaInfo:

Общее
Уникальный идентификатор : 192799562426973827680642161143183957236 (0x910BD8557A4BE8E9932E1A909989DCF4)
Полное имя : F:Kingdom.of.Heaven.2005.1080p.BluRay.5xRus.Ukr.Eng.HDLCUB.mkv
Формат : Matroska
Версия формата : Version 4 / Version 2
Размер файла : 28,6 Гбайт
Продолжительность : 3 ч. 9 м.
Общий поток : 21,6 Мбит/сек
Название фильма : Kingdom of Heaven DC (2005)
Дата кодирования : UTC 2016-10-13 13:54:58
Программа кодирования : mkvmerge v7.9.0 ('Birds') 64bit
Библиотека кодирования : libebml v1.3.1 + libmatroska v1.4.2
_STATISTICS_WRITING_APP : mkvmerge v7.9.0 ('Birds') 64bit
_STATISTICS_WRITING_DATE_UTC : 2016-10-13 13:54:58
_STATISTICS_TAGS : BPS DURATION NUMBER_OF_FRAMES NUMBER_OF_BYTES
DURATION : 03:09:32.640000000
NUMBER_OF_FRAMES : 355395
NUMBER_OF_BYTES : 272943360
Видео
Идентификатор : 1
Формат : AVC
Формат/Информация : Advanced Video Codec
Профиль формата : High@L4.1
Параметр CABAC формата : Да
Параметр ReFrames формата : 5 кадров
Идентификатор кодека : V_MPEG4/ISO/AVC
Продолжительность : 3 ч. 9 м.
Битрейт : 14,3 Мбит/сек
Ширина : 1920 пикселей
Высота : 818 пикселей
Соотношение сторон : 2,35:1
Режим частоты кадров : Постоянный
Частота кадров : 23,976 кадра/сек
Цветовое пространство : YUV
Субдискретизация насыщенности : 4:2:0
Битовая глубина : 8 бит
Тип развёртки : Прогрессивная
Бит/(Пиксели*Кадры) : 0.380
Размер потока : 18,9 Гбайт (66%)
Заголовок : Kingdom of Heaven BDrip.10800p
Язык : English
Default : Да
Forced : Нет
_STATISTICS_WRITING_APP : mkvmerge v7.9.0 ('Birds') 64bit
_STATISTICS_WRITING_DATE_UTC : 2016-10-13 13:54:58
_STATISTICS_TAGS : BPS DURATION NUMBER_OF_FRAMES NUMBER_OF_BYTES
DURATION : 03:09:34.122000000
NUMBER_OF_FRAMES : 272704
NUMBER_OF_BYTES : 20935481564
Аудио #1
Идентификатор : 2
Формат : DTS
Формат/Информация : Digital Theater Systems
Режим : 16
Параметр Endianness формата : Big
Идентификатор кодека : A_DTS
Продолжительность : 3 ч. 9 м.
Вид битрейта : Постоянный
Битрейт : 1509 Кбит/сек
Каналы : 6 каналов
Расположение каналов : Front: L C R, Side: L R, LFE
Частота : 48,0 КГц
Битовая глубина : 24 бит
Метод сжатия : С потерями
Размер потока : 2,00 Гбайт (7%)
Заголовок : Многоголосый закадровый - Киномания
Язык : Russian
Default : Нет
Forced : Нет
Аудио #2
Идентификатор : 3
Формат : DTS
Формат/Информация : Digital Theater Systems
Режим : 16
Параметр Endianness формата : Big
Идентификатор кодека : A_DTS
Продолжительность : 3 ч. 9 м.
Вид битрейта : Постоянный
Битрейт : 1509 Кбит/сек
Каналы : 6 каналов
Расположение каналов : Front: L C R, Side: L R, LFE
Частота : 48,0 КГц
Битовая глубина : 24 бит
Метод сжатия : С потерями
Размер потока : 2,00 Гбайт (7%)
Заголовок : Одноголосый авторский -Королёв
Язык : Russian
Default : Нет
Forced : Нет
Аудио #3
Идентификатор : 4
Формат : DTS
Формат/Информация : Digital Theater Systems
Режим : 16
Параметр Endianness формата : Big
Идентификатор кодека : A_DTS
Продолжительность : 3 ч. 9 м.
Вид битрейта : Постоянный
Битрейт : 1509 Кбит/сек
Каналы : 6 каналов
Расположение каналов : Front: L C R, Side: L R, LFE
Частота : 48,0 КГц
Битовая глубина : 24 бит
Метод сжатия : С потерями
Размер потока : 2,00 Гбайт (7%)
Заголовок : Одноголосый авторский - Гаврилов
Язык : Russian
Default : Нет
Forced : Нет
Аудио #4
Идентификатор : 5
Формат : AC-3
Формат/Информация : Audio Coding 3
Расширение режима : CM (complete main)
Параметр Endianness формата : Big
Идентификатор кодека : A_AC3
Продолжительность : 3 ч. 9 м.
Вид битрейта : Постоянный
Битрейт : 192 Кбит/сек
Каналы : 2 канала
Расположение каналов : Front: L R
Частота : 48,0 КГц
Битовая глубина : 16 бит
Метод сжатия : С потерями
Задержка видео : 1 с. 388 мс.
Размер потока : 260 Мбайт (1%)
Заголовок : Дубляж - (1+1) - Со вставками Любительского двухголосого
Язык : Ukrainian
Default : Да
Forced : Да
Аудио #5
Идентификатор : 6
Формат : AC-3
Формат/Информация : Audio Coding 3
Расширение режима : CM (complete main)
Параметр Endianness формата : Big
Идентификатор кодека : A_AC3
Продолжительность : 3 ч. 9 м.
Вид битрейта : Постоянный
Битрейт : 448 Кбит/сек
Каналы : 6 каналов
Расположение каналов : Front: L C R, Side: L R, LFE
Частота : 48,0 КГц
Битовая глубина : 16 бит
Метод сжатия : С потерями
Размер потока : 607 Мбайт (2%)
Заголовок : Дубляж, Со вставками Многоголосого |Киномании|
Язык : Russian
Default : Нет
Forced : Нет
Аудио #6
Идентификатор : 7
Формат : AC-3
Формат/Информация : Audio Coding 3
Расширение режима : CM (complete main)
Параметр Endianness формата : Big
Идентификатор кодека : A_AC3
Продолжительность : 3 ч. 9 м.
Вид битрейта : Постоянный
Битрейт : 192 Кбит/сек
Каналы : 2 канала
Расположение каналов : Front: L R
Частота : 48,0 КГц
Битовая глубина : 16 бит
Метод сжатия : С потерями
Размер потока : 260 Мбайт (1%)
Заголовок : Одноголосый авторский - Живов
Язык : Russian
Default : Нет
Forced : Нет
Аудио #7
Идентификатор : 8
Формат : DTS
Формат/Информация : Digital Theater Systems
Режим : 16
Параметр Endianness формата : Big
Идентификатор кодека : A_DTS
Продолжительность : 3 ч. 9 м.
Вид битрейта : Постоянный
Битрейт : 1509 Кбит/сек
Каналы : 6 каналов
Расположение каналов : Front: L C R, Side: L R, LFE
Частота : 48,0 КГц
Битовая глубина : 24 бит
Метод сжатия : С потерями
Размер потока : 2,00 Гбайт (7%)
Язык : English
Default : Нет
Forced : Нет
Текст #1
Идентификатор : 9
Формат : UTF-8
Идентификатор кодека : S_TEXT/UTF8
Идентификатор кодека/Информация : UTF-8 Plain Text
Язык : Ukrainian
Default : Да
Forced : Да
Текст #2
Идентификатор : 10
Формат : UTF-8
Идентификатор кодека : S_TEXT/UTF8
Идентификатор кодека/Информация : UTF-8 Plain Text
Заголовок : Sawyer
Язык : Russian
Default : Нет
Forced : Нет
Текст #3
Идентификатор : 11
Формат : UTF-8
Идентификатор кодека : S_TEXT/UTF8
Идентификатор кодека/Информация : UTF-8 Plain Text
Заголовок : Киномания
Язык : Russian
Default : Нет
Forced : Нет
Текст #4
Идентификатор : 12
Формат : UTF-8
Идентификатор кодека : S_TEXT/UTF8
Идентификатор кодека/Информация : UTF-8 Plain Text
Язык : English
Default : Нет
Forced : Нет
Текст #5
Идентификатор : 13
Формат : UTF-8
Идентификатор кодека : S_TEXT/UTF8
Идентификатор кодека/Информация : UTF-8 Plain Text
Заголовок : SDH
Язык : English
Default : Нет
Forced : Нет
Меню
00:00:00.000 : en:Overture
00:04:31.480 : en:Crossroads
00:07:24.277 : en:Crusaders
00:09:23.396 : en:Without an Heir
00:11:38.615 : en: Sin
00:14:38.878 : en:Old Memories
00:18:16.178 : en:The Baron's Son
00:20:39.113 : en:In Hell
00:22:04.323 : en:To Erase My Sins
00:24:19.583 : en:The Guard of the Hawk
00:30:45.552 : en:Whoever Dies Here Today
00:32:37.664 : en:The Path to Heaven
00:34:53.550 : en:A Better World
00:36:35.193 : en:Remember That Name
00:39:16.562 : en:The Knight's Oath
00:41:59.392 : en:Perilous Journey
00:45:56.086 : en:The Saracen's Challenge
00:49:08.278 : en:Jerusalem
00:51:37.928 : en:The New Baron
00:54:19.172 : en:Sibylla
00:56:37.352 : en:The Marshal of Jerusalem
00:58:37.097 : en:His Father's Son
01:01:16.589 : en:At the King's Table
01:05:48.152 : en:The Leper King
01:10:12.625 : en:Ibelin
01:16:10.983 : en:Guests of the House
01:18:44.219 : en:There Is Only Light
01:20:09.930 : en:God Wills It
01:21:30.218 : en:Tokens
01:24:35.403 : en:Blasphemy
01:29:35.244 : en:Defenders of Kerak
01:30:38.641 : en:The Friendly Enemy
01:34:08.309 : en:Jerusalem Has Come
01:37:14.245 : en:The Kiss of Peace
01:39:37.930 : en:Entr'acte
01:42:49.705 : en:I Quake for Islam
01:45:15.309 : en:Power
01:50:22.699 : en:An Understanding
01:54:52.802 : en:Conscience or Nothing
01:56:29.357 : en:The Final Dream
01:58:06.788 : en:Long Live the King
02:02:02.273 : en:The Reckoning
02:04:08.232 : en:A Mother's Pain
02:04:58.157 : en:Templars' Attack
02:07:44.031 : en:Queen of Jerusalem
02:11:45.314 : en:Beloved Sister
02:13:26.915 : en:He Is Waiting
02:16:16.835 : en:The Road to Hattin
02:18:09.656 : en:A King's Example
02:21:56.758 : en:Four Days
02:24:18.191 : en:To Defend Jerusalem
02:28:55.134 : en:Rise a Knight
02:34:59.081 : en:Siege
02:37:21.848 : en:Retaliation
02:39:20.008 : en:The Third Day
02:41:28.678 : en:God Will Understand
02:45:07.814 : en:The Door Into Jerusalem
02:50:53.576 : en:Final Stand
02:53:10.254 : en:Nothing and Everything
02:56:03.552 : en:The Perfect Knight
02:57:20.504 : en:Leaving Jerusalem
03:00:36.450 : en:A Queen Never Walks
-Файл
Кодек: x.264
Качество: BDRip 1080p
Видео: 1920x818 (2.35:1), 23.976 fps, AVC, ~14.3 Mbps, 0.380 bits/pixel
Звук:
#1: Russian, 48.0 KHz, DTS, 6 ch, 1510 Kbps - MVO, Киномания
#2: Russian, 48.0 KHz, DTS, 6 ch, 1510 Kbps - Одноголосый - Королёв
#3: Russian, 48.0 KHz, DTS, 6 ch, 1510 Kbps - Одноголосый - Гаврилов
#4: Ukrainian, 48.0 KHz, AC3, 2 ch, 192 Kbps - Дубляж, (1+1) - Со вставками Любительского двухголосого|
#5: Russian, 48.0 KHz, AC3, 6 ch, 448 Kbps - |Дубляж, Со вставками перевода Киномании|
#6: Russian, 48.0 KHz, AC3, 2 ch, 192 Kbps - VO, Живов
#7: English, 48.0 KHz, DTS, 6 ch, 1510 Kbps
Субтитры: Russian (Киномания, Sawyer), Ukranian (Forced), English (Full, SDH)

Скриншоты

Релиз от:
[Профиль] [ЛС]
Кто просматривает тему:

Форум Тема Автор Размер
Nat Geo Wild Nat Geo Wild: Дикое царство Перу / Peru's Wild Kingdom (Tenley Wurglitz) [1997 г., Документальный, научно-популярный, HDTVRip-AVC 720p] skorpionN 1.52 GB
Viasat Nature Viasat Nature: Путешествие в царство зверей. Бурные воды реки Эльба / Expeditionen ins Tierreich. Die Elbe [серии 1-2 из 2] (Svenja & Ralph Schieke) [2014 г., Документальный, познавательный, природа,... skorpionN 1.33 GB
Флора и фауна В подводном царстве / The Blue Realm (2004) HDTVRip [H.264/720p] [1-8 серия] KottoSoft 10.47 GB
Мультфильмы СССР Вовка в тридевятом царстве / Сборник мультфильмов (1954) DVD5 by гаврила Белочка 4.31 GB
Фильмы (HD Rips | 720p, 1080p) Джеки в царстве женщин / Jacky au royaume des filles (2014) BDRip 720p | D достали все 4.61 GB
Фильмы 2014 года Джеки в царстве женщин / Jacky au royaume des filles (2014) HDRip | D достали все 1.46 GB
Фильмы 2014 года Джеки в царстве женщин / Jacky au royaume des filles (2014) HDRip | Лицензия достали все 748 MB
Фильмы (HD Rips | 720p, 1080p) Запретное царство / The Forbidden Kingdom (2008) BDRip 720р Russian Mafia 3.03 GB
Показать сообщения:    

Текущее время: Сегодня 18:29

Часовой пояс: GMT



Вы не можете начинать темы
Вы не можете отвечать на сообщения
Вы не можете редактировать свои сообщения
Вы не можете удалять свои сообщения
Вы не можете голосовать в опросах
Вы не можете прикреплять файлы к сообщениям
Вы не можете скачивать файлы