Царство красоты / Le règne de la beauté (2014) HDRip | iTunes

 
Автор Сообщение

достали все ®

Пол:

Стаж: 2 года 3 месяца

Сообщений: 6780



Награды: 12 (Подробнее)

Mega Seeder 1 (Количество: 1) Mega Seeder 3 (Количество: 1) Mega Seeder 5 (Количество: 1)
Торрент-статистика

Создавать темы 13-Апр-2015 17:01

[Цитировать]

Информация о фильме
Название: Царство красоты
Оригинальное название: Le règne de la beauté
Год выхода: 2014
Жанр: драма
Режиссер: Дени Аркан
В ролях: Эрик Брунэо, Мелани Тьерри, Мелани Меркоски, Мари-Жозе Кроз, Мэтью Куэснел, Мишель Форге, Женевьева Буавен-Русси, Мэгали Лепин Блондо, Ив Жак, Хуана Акоста
О фильме: Люк — блестящий молодой архитектор, чей талант еще не признали. Он живет спокойной жизнью с женой Стефани. Жизнь Люка кажется идеальной, но однажды на симпозиуме в Торонто, он встречает таинственную женщину, которая изменит его жизнь…

Выпущено: Канада / Cinémaginaire Inc.
Продолжительность: 01:41:59
Озвучивание: Профессиональное (многоголосое) [iTunes]
Файл
Формат: AVI (XviD)
Качество: HDRip [Рип с BDRip 720p]
Видео: 821 kb/s, 720x384
Аудио: AC3, 128 kb/s (2 ch)
Размер: 700 Mb---

Media Info

General
Complete name : C:UsersuserDesktopCarstv0.Kras0t1.2014.D.HDRip.700Mb.avi
Format : AVI
Format/Info : Audio Video Interleave
File size : 700 MiB
Duration : 1h 41mn
Overall bit rate : 959 Kbps
Writing application : VirtualDubMod 1.5.10.2 (build 2540/release)
Writing library : VirtualDubMod build 2540/release
Video
ID : 0
Format : MPEG-4 Visual
Format profile : Advanced Simple@L5
Format settings, BVOP : 2
Format settings, QPel : No
Format settings, GMC : No warppoints
Format settings, Matrix : Default (MPEG)
Codec ID : XVID
Codec ID/Hint : XviD
Duration : 1h 41mn
Bit rate : 822 Kbps
Width : 720 pixels
Height : 384 pixels
Display aspect ratio : 1.85:1
Frame rate : 23.976 fps
Color space : YUV
Chroma subsampling : 4:2:0
Bit depth : 8 bits
Scan type : Progressive
Compression mode : Lossy
Bits/(Pixel*Frame) : 0.124
Stream size : 599 MiB (86%)
Writing library : XviD 1.2.1 (UTC 2008-12-04)
Audio
ID : 1
Format : AC-3
Format/Info : Audio Coding 3
Mode extension : CM (complete main)
Format settings, Endianness : Big
Codec ID : 2000
Duration : 1h 41mn
Bit rate mode : Constant
Bit rate : 128 Kbps
Channel(s) : 2 channels
Channel positions : Front: L R
Sampling rate : 48.0 KHz
Bit depth : 16 bits
Compression mode : Lossy
Stream size : 93.4 MiB (13%)
Alignment : Split accross interleaves
Interleave, duration : 42 ms (1.00 video frame)
Interleave, preload duration : 500 ms
--- --- -

Скриншоты

-
[Профиль] [ЛС]
Показать сообщения:    

Текущее время: Сегодня 00:28

Часовой пояс: GMT



Вы не можете начинать темы
Вы не можете отвечать на сообщения
Вы не можете редактировать свои сообщения
Вы не можете удалять свои сообщения
Вы не можете голосовать в опросах
Вы не можете прикреплять файлы к сообщениям
Вы не можете скачивать файлы