Царство зверей / Animal Kingdom (2010) BDRip 1080p

 
Автор Сообщение

sergej644 ®

Пол:

Стаж: 4 года 11 месяцев

Сообщений: 6038

Откуда: Soviet Union



Награды: Нет

Торрент-статистика

Создавать темы 02-Сен-2014 13:23

[Цитировать]

--Царство зверей / Animal Kingdom

Информация о фильме
Название: По волчьим законам
Оригинальное название: Animal Kingdom
Год выхода: 2010
Жанр: триллер, драма, криминал
Режисcер: Дэвид Мишо
В ролях: Джеймс Фрешвилл, Брюс Линдеманн, Пол Смитс, Джеки Уивер, Джоэл Эдгертон, Люк Форд, Салливан Степлтон, Мирра Фолкс, Энтони Ахерн, Джастин Росниак
О фильме:
Криминальная драма о войне подпольных группировок Мельбурна и полиции. В центре истории семнадцатилетний парень Джошуа из преступной семьи, которого пытается спасти от опасностей мира криминала детектив Леки. Джошуа предстоит выбрать свое место в царстве зверей и понять, что для выживания ему необходимо действовать по собственным правилам.

Выпущено: Австралия
Продолжительность: 01:53:11
Перевод: Профессиональный (многоголосый закадровый)
Файл
Контейнер: .mkv
Качество: BDRip 1080p
Video: H.264, 7500 kb/s, 1920 x 816 at 23.976 fps
Audio: Russian: AC3, 640 kb/s (6 ch), 48,0 КГц / English: AC3, 640 kb/s (6 ch), 48,0 КГц
Subtitles: Russian, Ukrainian, English--

M/I

General
Unique ID : 224004867237871262234060093794910064953 (0xA885C4A57DA9FDBCB078A7161AF9D139)
Complete name : D:Animal.Kingdom.(2010).BDRip_1080p.[-=DoMiNo=-].mkv
Format : Matroska
Format version : Version 4 / Version 2
File size : 6.94 GiB
Duration : 1h 53mn
Overall bit rate : 8 782 Kbps
Movie name : Animal Kingdom (2010) BDRip_1080p_[-=DoMiNo=-]
Encoded date : UTC 2014-09-01 03:06:09
Writing application : mkvmerge v7.1.0 ('Good Love') 64bit built on Jul 27 2014 13:06:55
Writing library : libebml v1.3.0 + libmatroska v1.4.1
DURATION : 01:47:38.910000000
NUMBER_OF_FRAMES : 1155
NUMBER_OF_BYTES : 43250
_STATISTICS_WRITING_APP : mkvmerge v7.1.0 ('Good Love') 64bit built on Jul 27 2014 13:06:55
_STATISTICS_WRITING_DATE_UTC : 2014-09-01 03:06:09
_STATISTICS_TAGS : BPS DURATION NUMBER_OF_FRAMES NUMBER_OF_BYTES
Video
ID : 1
Format : AVC
Format/Info : Advanced Video Codec
Format profile : High@L4.1
Format settings, CABAC : Yes
Format settings, ReFrames : 4 frames
Codec ID : V_MPEG4/ISO/AVC
Duration : 1h 53mn
Bit rate : 7 500 Kbps
Width : 1 920 pixels
Height : 816 pixels
Display aspect ratio : 2.35:1
Frame rate mode : Constant
Frame rate : 23.976 fps
Color space : YUV
Chroma subsampling : 4:2:0
Bit depth : 8 bits
Scan type : Progressive
Bits/(Pixel*Frame) : 0.200
Stream size : 5.79 GiB (83%)
Writing library : x264 core 130 r2273 b3065e6
Encoding settings : cabac=1 / ref=4 / deblock=1:-3:-3 / analyse=0x3:0x133 / me=umh / subme=11 / psy=1 / psy_rd=1.00:0.50 / mixed_ref=1 / me_range=48 / chroma_me=1 / trellis=2 / 8x8dct=1 / cqm=0 / deadzone=21,11 / fast_pskip=0 / chroma_qp_offset=-3 / threads=16 / lookahead_threads=4 / sliced_threads=0 / slices=4 / nr=0 / decimate=0 / interlaced=0 / bluray_compat=0 / constrained_intra=0 / bframes=5 / b_pyramid=2 / b_adapt=2 / b_bias=0 / direct=3 / weightb=1 / open_gop=0 / weightp=2 / keyint=250 / keyint_min=23 / scenecut=40 / intra_refresh=0 / rc_lookahead=60 / rc=2pass / mbtree=1 / bitrate=7500 / ratetol=1.0 / qcomp=0.70 / qpmin=0 / qpmax=69 / qpstep=4 / cplxblur=20.0 / qblur=0.5 / ip_ratio=1.40 / aq=1:1.80
Default : Yes
Forced : No
Audio #1
ID : 2
Format : AC-3
Format/Info : Audio Coding 3
Mode extension : CM (complete main)
Format settings, Endianness : Big
Codec ID : A_AC3
Duration : 1h 53mn
Bit rate mode : Constant
Bit rate : 640 Kbps
Channel(s) : 6 channels
Channel positions : Front: L C R, Side: L R, LFE
Sampling rate : 48.0 KHz
Bit depth : 16 bits
Compression mode : Lossy
Stream size : 518 MiB (7%)
Title : Многоголосый закадровый
Language : Russian
Default : Yes
Forced : No
Audio #2
ID : 3
Format : AC-3
Format/Info : Audio Coding 3
Mode extension : CM (complete main)
Format settings, Endianness : Big
Codec ID : A_AC3
Duration : 1h 53mn
Bit rate mode : Constant
Bit rate : 640 Kbps
Channel(s) : 6 channels
Channel positions : Front: L C R, Side: L R, LFE
Sampling rate : 48.0 KHz
Bit depth : 16 bits
Compression mode : Lossy
Stream size : 518 MiB (7%)
Title : English
Language : English
Default : No
Forced : No
Text #1
ID : 4
Format : UTF-8
Codec ID : S_TEXT/UTF8
Codec ID/Info : UTF-8 Plain Text
Title : лицензия
Language : Russian
Default : No
Forced : No
Text #2
ID : 5
Format : UTF-8
Codec ID : S_TEXT/UTF8
Codec ID/Info : UTF-8 Plain Text
Language : Ukrainian
Default : No
Forced : No
Text #3
ID : 6
Format : UTF-8
Codec ID : S_TEXT/UTF8
Codec ID/Info : UTF-8 Plain Text
Language : English
Default : No
Forced : No
Menu
00:00:00.000 : en:00:00:00.000
00:05:57.482 : en:00:05:57.482
00:13:03.657 : en:00:13:03.657
00:21:11.228 : en:00:21:11.228
00:29:32.312 : en:00:29:32.312
00:34:48.503 : en:00:34:48.503
00:41:37.203 : en:00:41:37.203
00:49:29.967 : en:00:49:29.967
00:58:14.991 : en:00:58:14.991
01:03:50.535 : en:01:03:50.535
01:08:58.884 : en:01:08:58.884
01:15:42.037 : en:01:15:42.037
01:24:50.835 : en:01:24:50.835
01:32:47.228 : en:01:32:47.228
01:37:56.620 : en:01:37:56.620
01:46:03.315 : en:01:46:03.315
----
[Профиль] [ЛС]
Кто просматривает тему:

Форум Тема Автор Размер
Nat Geo Wild Nat Geo Wild: Дикое царство Перу / Peru's Wild Kingdom (Tenley Wurglitz) [1997 г., Документальный, научно-популярный, HDTVRip-AVC 720p] skorpionN 1.52 GB
Viasat Nature Viasat Nature: Путешествие в царство зверей. Бурные воды реки Эльба / Expeditionen ins Tierreich. Die Elbe [серии 1-2 из 2] (Svenja & Ralph Schieke) [2014 г., Документальный, познавательный, природа,... skorpionN 1.33 GB
Флора и фауна В подводном царстве / The Blue Realm (2004) HDTVRip [H.264/720p] [1-8 серия] KottoSoft 10.47 GB
Мультфильмы СССР Вовка в тридевятом царстве / Сборник мультфильмов (1954) DVD5 by гаврила Белочка 4.31 GB
Фильмы (HD Rips | 720p, 1080p) Джеки в царстве женщин / Jacky au royaume des filles (2014) BDRip 720p | D достали все 4.61 GB
Фильмы 2014 года Джеки в царстве женщин / Jacky au royaume des filles (2014) HDRip | D достали все 1.46 GB
Фильмы 2014 года Джеки в царстве женщин / Jacky au royaume des filles (2014) HDRip | Лицензия достали все 748 MB
Фильмы (HD Rips | 720p, 1080p) Запретное царство / The Forbidden Kingdom (2008) BDRip 720р Russian Mafia 3.03 GB
Показать сообщения:    

Текущее время: Сегодня 14:35

Часовой пояс: GMT



Вы не можете начинать темы
Вы не можете отвечать на сообщения
Вы не можете редактировать свои сообщения
Вы не можете удалять свои сообщения
Вы не можете голосовать в опросах
Вы не можете прикреплять файлы к сообщениям
Вы не можете скачивать файлы