Царство грёз и безумства / Yume to Kyouki no Oukoku / The Kingdom Of Dreams And Madness (Мами Сунада) [2013, Документальный фильм, Blu-ray disc (custom) 1080p] [JAP+SUB]

 
Автор Сообщение

TorrentFilm ®

Пол:

Стаж: 2 года

Сообщений: 7741



Награды: Нет

Торрент-статистика

Создавать темы 03-Фев-2015 00:00

[Цитировать]

Царство грёз и безумстваThe Kingdom of Dreams and MadnessGhibli ga Ippai Collection Special / Специальный выпуск коллекции "Всё это Гибли"夢と狂気の王国 Страна: Япония
Год выпуска: 2013
Жанр: Документальный фильм
Продолжительность: 2:32:33 (1:57:54 + 00:32:24 + 00:02:13)
Режиссер: Мами Сунада
Студия: Dwango, Studio Ghibli
Перевод: Субтитры
Русские субтитры: есть
Описание: Один год из жизни студии "Гибли"... Так ли уж часто нам удаётся заглянуть за кулисы студии и узнать, чем и как живут её сотрудники? А к ним домой? А как они проводят свободное время? О чём грезят, к чему стремятся?
Этот фильм откроет двери в царство грёз и безумства, которыми полнятся стены студии. Один год – время создания "Ветер препчает" и "Сказание о принцессе Кагуя". Один год из жизни Хаяо Миязаки, Тосио Сузуки и Исао Такахаты, история содания их последних фильмов в лицах.
Полное содержание Blu-ray:
1. Документальный фильм "Царство грёз и безумства"
2. Документальный фильм "По следам Усико"
3. Короткометражка "Дайджест"
4. Трейлеры "Царства" и других фильмов студии
Технические данные:
  • Тип релиза: Blu-ray disc
    Контейнер: BDMV
  • Видео:
    Фильм 1: MPEG-4 AVC Video / 34212 kbps / 1080p / 29,970 fps / 16:9 / High Profile 4.1
    Фильм 2: MPEG-4 AVC Video / 34781 kbps / 1080p / 29,970 fps / 16:9 / High Profile 4.1
    Фильм 3: MPEG-4 AVC Video / 34350 kbps / 1080p / 29,970 fps / 16:9 / High Profile 4.1
  • Аудио:
    Фильм 1: Японский DTS-HD Master Audio / 3474 kbps / 5.1 / 48 kHz / 24-bit (DTS Core: 5.1 / 48 kHz / 1509 kbps / 24-bit)
    Фильм 2: Японский DTS-HD Master Audio / 2093 kbps / 2.0 / 48 kHz / 24-bit (DTS Core: 2.0 / 48 kHz / 1509 kbps / 24-bit)
    Фильм 3: Японский DTS-HD Master Audio / 2069 kbps / 2.0 / 48 kHz / 24-bit (DTS Core: 2.0 / 48 kHz / 1509 kbps / 24-bit)
  • Субтитры:
    Фильм 1: prerendered (Blu-ray/PGS/SUP): японские, английские, русские
    Фильмы 2, 3: prerendered (Blu-ray/PGS/SUP): русские
  • Меню: русскоязычное, статичное
    Доп. информация: Диск собран из материалов оригинального Blu-ray, реавторинг выполнен в Sonic Scenarist. Меню русифицировано и исправлено согласно добавленным русским субтитрам ко всем материалам (кроме рекламных роликов).
    Воспроизведение проверено на Sony PS3, TMT5, PowerDVD 12 и Toshiba BDX1200.
    Авторский коллектив раздачи:
    TFloater - русский текст к субтитрам на полнометражный фильм, тестирование
    BurniNSnikerS - русский текст к субтитрам на дополнительные материалы, авторинг, тестирование
    Отдельная благодарность пользователю трекера xandpa за исходный диск

MediaInfo

Disc Title: 2013 The Kingdom of Dreams and MadnessDisc Size: 47 072 720 974 bytesProtection: AACSBD-Java: NoBDInfo: 0.5.8
Notes:
BDINFO HOME: Cinema Squid http://www.cinemasquid.com/blu-ray/tools/bdinfo
INCLUDES FORUMS REPORT FOR: AVS Forum Blu-ray Audio and Video Specifications Thread http://www.avsforum.com/avs-vb/showthread.php?t=1155731
********************PLAYLIST: 00001.MPLS********************
Total   Video
Title                                                           Codec   Length  Movie Size      Disc Size       Bitrate Bitrate Main Audio Track                          Secondary Audio Track
-----                                                           ------  ------- --------------  --------------  ------- ------- ------------------                        ---------------------
00001.MPLS                                                      AVC     1:57:54 35 166 763 008  47 072 720 974  39,77   34,21   DTS-HD Master 5.1 3474Kbps (48kHz/24-bit)
DISC INFO:
Disc Title:     2013 The Kingdom of Dreams and Madness
Disc Size:      47 072 720 974 bytes
Protection:     AACS
BD-Java:        No
BDInfo:         0.5.8
PLAYLIST REPORT:
Name:                   00001.MPLS
Length:                 1:57:54.067 (h:m:s.ms)
Size:                   35 166 763 008 bytes
Total Bitrate:          39,77 Mbps
VIDEO:
Codec                   Bitrate             Description
-----                   -------             -----------
MPEG-4 AVC Video        34212 kbps          1080p / 23,976 fps / 16:9 / High Profile 4.1
AUDIO:
Codec                           Language        Bitrate         Description
-----                           --------        -------         -----------
DTS-HD Master Audio             Japanese        3474 kbps       5.1 / 48 kHz / 3474 kbps / 24-bit (DTS Core: 5.1 / 48 kHz / 1509 kbps / 24-bit)
SUBTITLES:
Codec                           Language        Bitrate         Description
-----                           --------        -------         -----------
Presentation Graphics           Japanese        44,852 kbps
Presentation Graphics           English         43,871 kbps
Presentation Graphics           Russian         30,888 kbps
FILES:
Name            Time In         Length          Size            Total Bitrate
----            -------         ------          ----            -------------
00001.M2TS      0:00:00.000     1:57:54.067     35 166 763 008  39 770
CHAPTERS:
Number          Time In         Length          Avg Video Rate  Max 1-Sec Rate  Max 1-Sec Time  Max 5-Sec Rate  Max 5-Sec Time  Max 10Sec Rate  Max 10Sec Time  Avg Frame Size  Max Frame Size  Max Frame Time
------          -------         ------          --------------  --------------  --------------  --------------  --------------  --------------  --------------  --------------  --------------  --------------
1               0:00:00.000     0:11:13.047     36 200 kbps     45 929 kbps     00:00:09.426    40 076 kbps     00:00:05.380    38 986 kbps     00:01:14.491    188 716 bytes   640 623 bytes   00:07:09.345
2               0:11:13.047     0:07:51.554     34 764 kbps     42 283 kbps     00:11:42.868    39 233 kbps     00:11:42.868    38 823 kbps     00:12:39.341    181 244 bytes   625 465 bytes   00:16:10.469
3               0:19:04.601     0:05:58.566     33 773 kbps     41 157 kbps     00:21:22.614    39 192 kbps     00:20:40.030    38 874 kbps     00:20:35.025    176 078 bytes   438 972 bytes   00:25:03.168
4               0:25:03.168     0:14:18.274     32 094 kbps     42 457 kbps     00:32:04.130    39 169 kbps     00:30:06.387    38 759 kbps     00:34:09.047    167 321 bytes   640 697 bytes   00:30:28.952
5               0:39:21.442     0:08:51.197     37 590 kbps     42 172 kbps     00:44:45.015    39 429 kbps     00:44:40.969    38 906 kbps     00:39:26.072    195 975 bytes   640 014 bytes   00:44:42.596
6               0:48:12.639     0:09:46.502     37 520 kbps     41 379 kbps     00:48:59.144    39 335 kbps     00:50:58.346    38 948 kbps     00:48:49.927    195 613 bytes   594 889 bytes   00:55:26.656
7               0:57:59.142     0:06:38.272     28 583 kbps     40 860 kbps     01:04:12.348    39 000 kbps     01:04:31.826    38 645 kbps     01:03:46.697    149 020 bytes   551 395 bytes   01:04:37.415
8               1:04:37.415     0:13:20.216     36 209 kbps     42 165 kbps     01:04:50.970    39 225 kbps     01:04:46.883    38 977 kbps     01:04:47.174    188 775 bytes   639 350 bytes   01:04:58.936
9               1:17:57.631     0:12:25.828     35 963 kbps     42 771 kbps     01:23:24.666    39 402 kbps     01:23:20.662    38 939 kbps     01:23:15.657    187 493 bytes   636 449 bytes   01:18:10.310
10              1:30:23.459     0:05:46.095     31 488 kbps     41 967 kbps     01:30:28.339    39 289 kbps     01:30:24.419    38 881 kbps     01:33:53.669    164 162 bytes   639 608 bytes   01:30:28.464
11              1:36:09.555     0:15:03.277     34 131 kbps     42 189 kbps     01:49:59.092    39 236 kbps     01:49:19.386    38 860 kbps     01:49:28.562    177 944 bytes   639 818 bytes   01:49:22.889
12              1:51:12.832     0:06:39.232     26 863 kbps     41 773 kbps     01:52:20.024    39 200 kbps     01:52:16.020    38 865 kbps     01:56:08.419    140 052 bytes   636 470 bytes   01:51:14.834
13              1:57:52.065     0:00:01.001     38 kbps         38 kbps         01:57:52.065    0 kbps          00:00:00.000    0 kbps          00:00:00.000    196 bytes       979 bytes       01:57:53.066
14              1:57:53.066     0:00:01.001     29 kbps         0 kbps          00:00:00.000    0 kbps          00:00:00.000    0 kbps          00:00:00.000    162 bytes       176 bytes       01:57:53.816
STREAM DIAGNOSTICS:
File            PID             Type            Codec           Language                Seconds                 Bitrate                 Bytes           Packets
----            ---             ----            -----           --------                --------------          --------------          -------------   -----
00001.M2TS      4113 (0x1011)   0x1B            AVC                                     7073,900                34 213                  30 252 276 240  164 513 349
00001.M2TS      4352 (0x1100)   0x86            DTS-HD MA       jpn (Japanese)          7073,900                3 474                   3 072 217 000   17 803 729
00001.M2TS      4608 (0x1200)   0x90            PGS             jpn (Japanese)          7073,900                45                      39 660 573      226 505
00001.M2TS      4609 (0x1201)   0x90            PGS             eng (English)           7073,900                44                      38 793 050      220 799
00001.M2TS      4610 (0x1202)   0x90            PGS             rus (Russian)           7073,900                31                      27 312 659      158 823
QUICK SUMMARY:
Disc Title: 2013 The Kingdom of Dreams and MadnessDisc Size: 47 072 720 974 bytesProtection: AACSBD-Java: NoPlaylist: 00001.MPLSSize: 35 166 763 008 bytesLength: 1:57:54.067Total Bitrate: 39,77 MbpsVideo: MPEG-4 AVC Video / 34212 kbps / 1080p / 23,976 fps / 16:9 / High Profile 4.1Audio: Japanese / DTS-HD Master Audio / 5.1 / 48 kHz / 3474 kbps / 24-bit (DTS Core: 5.1 / 48 kHz / 1509 kbps / 24-bit)Subtitle: Japanese / 44,852 kbpsSubtitle: English / 43,871 kbpsSubtitle: Russian / 30,888 kbps
********************PLAYLIST: 00002.MPLS********************
Total   Video
Title                                                           Codec   Length  Movie Size      Disc Size       Bitrate Bitrate Main Audio Track                          Secondary Audio Track
-----                                                           ------  ------- --------------  --------------  ------- ------- ------------------                        ---------------------
00002.MPLS                                                      AVC     0:32:23 9 437 571 072   47 072 720 974  38,84   34,78   DTS-HD Master 2.0 2093Kbps (48kHz/24-bit)
DISC INFO:
Disc Title:     2013 The Kingdom of Dreams and Madness
Disc Size:      47 072 720 974 bytes
Protection:     AACS
BD-Java:        No
BDInfo:         0.5.8
PLAYLIST REPORT:
Name:                   00002.MPLS
Length:                 0:32:23.942 (h:m:s.ms)
Size:                   9 437 571 072 bytes
Total Bitrate:          38,84 Mbps
VIDEO:
Codec                   Bitrate             Description
-----                   -------             -----------
MPEG-4 AVC Video        34781 kbps          1080p / 23,976 fps / 16:9 / High Profile 4.1
AUDIO:
Codec                           Language        Bitrate         Description
-----                           --------        -------         -----------
DTS-HD Master Audio             Japanese        2093 kbps       2.0 / 48 kHz / 2093 kbps / 24-bit (DTS Core: 2.0 / 48 kHz / 1509 kbps / 24-bit)
SUBTITLES:
Codec                           Language        Bitrate         Description
-----                           --------        -------         -----------
Presentation Graphics           Russian         42,262 kbps
FILES:
Name            Time In         Length          Size            Total Bitrate
----            -------         ------          ----            -------------
00002.M2TS      0:00:00.000     0:32:23.942     9 437 571 072   38 839
CHAPTERS:
Number          Time In         Length          Avg Video Rate  Max 1-Sec Rate  Max 1-Sec Time  Max 5-Sec Rate  Max 5-Sec Time  Max 10Sec Rate  Max 10Sec Time  Avg Frame Size  Max Frame Size  Max Frame Time
------          -------         ------          --------------  --------------  --------------  --------------  --------------  --------------  --------------  --------------  --------------  --------------
1               0:00:00.000     0:02:23.309     36 794 kbps     43 730 kbps     00:02:21.850    39 709 kbps     00:02:17.887    39 190 kbps     00:02:12.924    191 771 bytes   558 552 bytes   00:01:29.672
2               0:02:23.309     0:07:20.106     36 986 kbps     41 452 kbps     00:06:44.904    39 240 kbps     00:04:46.744    38 978 kbps     00:04:41.739    192 830 bytes   638 324 bytes   00:08:10.948
3               0:09:43.416     0:03:23.828     35 511 kbps     40 720 kbps     00:10:11.319    39 091 kbps     00:12:15.609    38 975 kbps     00:09:53.926    185 138 bytes   466 110 bytes   00:12:59.612
4               0:13:07.244     0:03:46.226     34 966 kbps     41 794 kbps     00:13:13.334    39 107 kbps     00:14:22.695    38 829 kbps     00:13:31.602    182 297 bytes   572 439 bytes   00:13:19.965
5               0:16:53.470     0:02:22.517     23 251 kbps     39 855 kbps     00:19:08.355    38 908 kbps     00:19:08.355    34 162 kbps     00:19:05.561    121 221 bytes   365 712 bytes   00:19:13.694
6               0:19:15.988     0:03:29.500     38 250 kbps     40 028 kbps     00:22:31.975    38 965 kbps     00:22:31.141    38 834 kbps     00:20:55.504    199 416 bytes   414 371 bytes   00:22:39.858
7               0:22:45.489     0:03:55.026     29 724 kbps     40 960 kbps     00:24:34.473    39 136 kbps     00:26:34.050    38 957 kbps     00:26:26.960    154 966 bytes   527 900 bytes   00:22:50.535
8               0:26:40.515     0:05:42.425     36 751 kbps     42 174 kbps     00:32:21.648    39 463 kbps     00:32:17.518    38 977 kbps     00:31:47.947    191 603 bytes   480 545 bytes   00:30:59.190
9               0:32:22.940     0:00:01.001     14 916 kbps     0 kbps          00:00:00.000    0 kbps          00:00:00.000    0 kbps          00:00:00.000    81 145 bytes    203 320 bytes   00:32:23.816
STREAM DIAGNOSTICS:
File            PID             Type            Codec           Language                Seconds                 Bitrate                 Bytes           Packets
----            ---             ----            -----           --------                --------------          --------------          -------------   -----
00002.M2TS      4113 (0x1011)   0x1B            AVC                                     1943,775                34 784                  8 451 449 225   45 958 796
00002.M2TS      4352 (0x1100)   0x86            DTS-HD MA       jpn (Japanese)          1943,775                2 093                   508 484 404     3 071 451
00002.M2TS      4608 (0x1200)   0x90            PGS             rus (Russian)           1943,775                42                      10 269 414      58 604
QUICK SUMMARY:
Disc Title: 2013 The Kingdom of Dreams and MadnessDisc Size: 47 072 720 974 bytesProtection: AACSBD-Java: NoPlaylist: 00002.MPLSSize: 9 437 571 072 bytesLength: 0:32:23.942Total Bitrate: 38,84 MbpsVideo: MPEG-4 AVC Video / 34781 kbps / 1080p / 23,976 fps / 16:9 / High Profile 4.1Audio: Japanese / DTS-HD Master Audio / 2.0 / 48 kHz / 2093 kbps / 24-bit (DTS Core: 2.0 / 48 kHz / 1509 kbps / 24-bit)Subtitle: Russian / 42,262 kbps
********************PLAYLIST: 00008.MPLS********************
Total   Video
Title                                                           Codec   Length  Movie Size      Disc Size       Bitrate Bitrate Main Audio Track                          Secondary Audio Track
-----                                                           ------  ------- --------------  --------------  ------- ------- ------------------                        ---------------------
00008.MPLS                                                      AVC     0:07:20 2 263 506 432   47 072 720 974  41,14   36,99   DTS-HD Master 2.0 2108Kbps (48kHz/24-bit)
DISC INFO:
Disc Title:     2013 The Kingdom of Dreams and Madness
Disc Size:      47 072 720 974 bytes
Protection:     AACS
BD-Java:        No
BDInfo:         0.5.8
PLAYLIST REPORT:
Name:                   00008.MPLS
Length:                 0:07:20.106 (h:m:s.ms)
Size:                   2 263 506 432 bytes
Total Bitrate:          41,14 Mbps
VIDEO:
Codec                   Bitrate             Description
-----                   -------             -----------
MPEG-4 AVC Video        36986 kbps          1080p / 23,976 fps / 16:9 / High Profile 4.1
AUDIO:
Codec                           Language        Bitrate         Description
-----                           --------        -------         -----------
DTS-HD Master Audio             Japanese        2108 kbps       2.0 / 48 kHz / 2108 kbps / 24-bit (DTS Core: 2.0 / 48 kHz / 1509 kbps / 24-bit)
SUBTITLES:
Codec                           Language        Bitrate         Description
-----                           --------        -------         -----------
Presentation Graphics           Russian         34,025 kbps
FILES:
Name            Time In         Length          Size            Total Bitrate
----            -------         ------          ----            -------------
00002.M2TS      0:00:00.000     0:07:20.106     2 263 506 432   41 145
CHAPTERS:
Number          Time In         Length          Avg Video Rate  Max 1-Sec Rate  Max 1-Sec Time  Max 5-Sec Rate  Max 5-Sec Time  Max 10Sec Rate  Max 10Sec Time  Avg Frame Size  Max Frame Size  Max Frame Time
------          -------         ------          --------------  --------------  --------------  --------------  --------------  --------------  --------------  --------------  --------------  --------------
1               0:00:00.000     0:07:20.106     36 991 kbps     41 452 kbps     00:04:21.594    39 240 kbps     00:02:23.434    38 978 kbps     00:02:18.429    192 834 bytes   638 324 bytes   00:05:47.638
STREAM DIAGNOSTICS:
File            PID             Type            Codec           Language                Seconds                 Bitrate                 Bytes           Packets
----            ---             ----            -----           --------                --------------          --------------          -------------   -----
00002.M2TS      4113 (0x1011)   0x1B            AVC                                     1943,775                34 784                  8 451 449 225   45 958 796
00002.M2TS      4352 (0x1100)   0x86            DTS-HD MA       jpn (Japanese)          1943,775                2 093                   508 484 404     3 071 451
00002.M2TS      4608 (0x1200)   0x90            PGS             rus (Russian)           1943,775                42                      10 269 414      58 604
QUICK SUMMARY:
Disc Title: 2013 The Kingdom of Dreams and MadnessDisc Size: 47 072 720 974 bytesProtection: AACSBD-Java: NoPlaylist: 00008.MPLSSize: 2 263 506 432 bytesLength: 0:07:20.106Total Bitrate: 41,14 MbpsVideo: MPEG-4 AVC Video / 36986 kbps / 1080p / 23,976 fps / 16:9 / High Profile 4.1Audio: Japanese / DTS-HD Master Audio / 2.0 / 48 kHz / 2108 kbps / 24-bit (DTS Core: 2.0 / 48 kHz / 1509 kbps / 24-bit)Subtitle: Russian / 34,025 kbps
********************PLAYLIST: 00014.MPLS********************
Total   Video
Title                                                           Codec   Length  Movie Size      Disc Size       Bitrate Bitrate Main Audio Track                          Secondary Audio Track
-----                                                           ------  ------- --------------  --------------  ------- ------- ------------------                        ---------------------
00014.MPLS                                                      AVC     0:05:43 1 752 774 720   47 072 720 974  40,83   36,69   DTS-HD Master 2.0 2094Kbps (48kHz/24-bit)
DISC INFO:
Disc Title:     2013 The Kingdom of Dreams and Madness
Disc Size:      47 072 720 974 bytes
Protection:     AACS
BD-Java:        No
BDInfo:         0.5.8
PLAYLIST REPORT:
Name:                   00014.MPLS
Length:                 0:05:43.426 (h:m:s.ms)
Size:                   1 752 774 720 bytes
Total Bitrate:          40,83 Mbps
VIDEO:
Codec                   Bitrate             Description
-----                   -------             -----------
MPEG-4 AVC Video        36693 kbps          1080p / 23,976 fps / 16:9 / High Profile 4.1
AUDIO:
Codec                           Language        Bitrate         Description
-----                           --------        -------         -----------
DTS-HD Master Audio             Japanese        2094 kbps       2.0 / 48 kHz / 2094 kbps / 24-bit (DTS Core: 2.0 / 48 kHz / 1509 kbps / 24-bit)
SUBTITLES:
Codec                           Language        Bitrate         Description
-----                           --------        -------         -----------
Presentation Graphics           Russian         33,105 kbps
FILES:
Name            Time In         Length          Size            Total Bitrate
----            -------         ------          ----            -------------
00002.M2TS      0:00:00.000     0:05:43.426     1 752 774 720   40 830
CHAPTERS:
Number          Time In         Length          Avg Video Rate  Max 1-Sec Rate  Max 1-Sec Time  Max 5-Sec Rate  Max 5-Sec Time  Max 10Sec Rate  Max 10Sec Time  Avg Frame Size  Max Frame Size  Max Frame Time
------          -------         ------          --------------  --------------  --------------  --------------  --------------  --------------  --------------  --------------  --------------  --------------
1               0:00:00.000     0:05:42.425     36 757 kbps     42 174 kbps     00:05:41.132    39 463 kbps     00:05:37.003    38 977 kbps     00:05:07.432    191 609 bytes   480 545 bytes   00:04:18.675
2               0:05:42.425     0:00:01.001     14 916 kbps     0 kbps          00:00:00.000    0 kbps          00:00:00.000    0 kbps          00:00:00.000    81 145 bytes    203 320 bytes   00:05:43.301
STREAM DIAGNOSTICS:
File            PID             Type            Codec           Language                Seconds                 Bitrate                 Bytes           Packets
----            ---             ----            -----           --------                --------------          --------------          -------------   -----
00002.M2TS      4113 (0x1011)   0x1B            AVC                                     1943,775                34 784                  8 451 449 225   45 958 796
00002.M2TS      4352 (0x1100)   0x86            DTS-HD MA       jpn (Japanese)          1943,775                2 093                   508 484 404     3 071 451
00002.M2TS      4608 (0x1200)   0x90            PGS             rus (Russian)           1943,775                42                      10 269 414      58 604
QUICK SUMMARY:
Disc Title: 2013 The Kingdom of Dreams and MadnessDisc Size: 47 072 720 974 bytesProtection: AACSBD-Java: NoPlaylist: 00014.MPLSSize: 1 752 774 720 bytesLength: 0:05:43.426Total Bitrate: 40,83 MbpsVideo: MPEG-4 AVC Video / 36693 kbps / 1080p / 23,976 fps / 16:9 / High Profile 4.1Audio: Japanese / DTS-HD Master Audio / 2.0 / 48 kHz / 2094 kbps / 24-bit (DTS Core: 2.0 / 48 kHz / 1509 kbps / 24-bit)Subtitle: Russian / 33,105 kbps
********************PLAYLIST: 00013.MPLS********************
Total   Video
Title                                                           Codec   Length  Movie Size      Disc Size       Bitrate Bitrate Main Audio Track                          Secondary Audio Track
-----                                                           ------  ------- --------------  --------------  ------- ------- ------------------                        ---------------------
00013.MPLS                                                      AVC     0:03:55 985 477 632     47 072 720 974  33,54   29,73   DTS-HD Master 2.0 2075Kbps (48kHz/24-bit)
DISC INFO:
Disc Title:     2013 The Kingdom of Dreams and Madness
Disc Size:      47 072 720 974 bytes
Protection:     AACS
BD-Java:        No
BDInfo:         0.5.8
PLAYLIST REPORT:
Name:                   00013.MPLS
Length:                 0:03:55.026 (h:m:s.ms)
Size:                   985 477 632 bytes
Total Bitrate:          33,54 Mbps
VIDEO:
Codec                   Bitrate             Description
-----                   -------             -----------
MPEG-4 AVC Video        29727 kbps          1080p / 23,976 fps / 16:9 / High Profile 4.1
AUDIO:
Codec                           Language        Bitrate         Description
-----                           --------        -------         -----------
DTS-HD Master Audio             Japanese        2075 kbps       2.0 / 48 kHz / 2075 kbps / 24-bit (DTS Core: 2.0 / 48 kHz / 1509 kbps / 24-bit)
SUBTITLES:
Codec                           Language        Bitrate         Description
-----                           --------        -------         -----------
Presentation Graphics           Russian         42,991 kbps
FILES:
Name            Time In         Length          Size            Total Bitrate
----            -------         ------          ----            -------------
00002.M2TS      0:00:00.000     0:03:55.026     985 477 632     33 538
CHAPTERS:
Number          Time In         Length          Avg Video Rate  Max 1-Sec Rate  Max 1-Sec Time  Max 5-Sec Rate  Max 5-Sec Time  Max 10Sec Rate  Max 10Sec Time  Avg Frame Size  Max Frame Size  Max Frame Time
------          -------         ------          --------------  --------------  --------------  --------------  --------------  --------------  --------------  --------------  --------------  --------------
1               0:00:00.000     0:03:55.026     29 733 kbps     40 960 kbps     00:01:48.983    39 136 kbps     00:03:48.561    38 957 kbps     00:03:41.471    154 985 bytes   527 900 bytes   00:00:05.046
STREAM DIAGNOSTICS:
File            PID             Type            Codec           Language                Seconds                 Bitrate                 Bytes           Packets
----            ---             ----            -----           --------                --------------          --------------          -------------   -----
00002.M2TS      4113 (0x1011)   0x1B            AVC                                     1943,775                34 784                  8 451 449 225   45 958 796
00002.M2TS      4352 (0x1100)   0x86            DTS-HD MA       jpn (Japanese)          1943,775                2 093                   508 484 404     3 071 451
00002.M2TS      4608 (0x1200)   0x90            PGS             rus (Russian)           1943,775                42                      10 269 414      58 604
QUICK SUMMARY:
Disc Title: 2013 The Kingdom of Dreams and MadnessDisc Size: 47 072 720 974 bytesProtection: AACSBD-Java: NoPlaylist: 00013.MPLSSize: 985 477 632 bytesLength: 0:03:55.026Total Bitrate: 33,54 MbpsVideo: MPEG-4 AVC Video / 29727 kbps / 1080p / 23,976 fps / 16:9 / High Profile 4.1Audio: Japanese / DTS-HD Master Audio / 2.0 / 48 kHz / 2075 kbps / 24-bit (DTS Core: 2.0 / 48 kHz / 1509 kbps / 24-bit)Subtitle: Russian / 42,991 kbps
********************PLAYLIST: 00010.MPLS********************
Total   Video
Title                                                           Codec   Length  Movie Size      Disc Size       Bitrate Bitrate Main Audio Track                          Secondary Audio Track
-----                                                           ------  ------- --------------  --------------  ------- ------- ------------------                        ---------------------
00010.MPLS                                                      AVC     0:03:46 1 104 049 344   47 072 720 974  39,04   34,97   DTS-HD Master 2.0 2084Kbps (48kHz/24-bit)
DISC INFO:
Disc Title:     2013 The Kingdom of Dreams and Madness
Disc Size:      47 072 720 974 bytes
Protection:     AACS
BD-Java:        No
BDInfo:         0.5.8
PLAYLIST REPORT:
Name:                   00010.MPLS
Length:                 0:03:46.226 (h:m:s.ms)
Size:                   1 104 049 344 bytes
Total Bitrate:          39,04 Mbps
VIDEO:
Codec                   Bitrate             Description
-----                   -------             -----------
MPEG-4 AVC Video        34965 kbps          1080p / 23,976 fps / 16:9 / High Profile 4.1
AUDIO:
Codec                           Language        Bitrate         Description
-----                           --------        -------         -----------
DTS-HD Master Audio             Japanese        2084 kbps       2.0 / 48 kHz / 2084 kbps / 24-bit (DTS Core: 2.0 / 48 kHz / 1509 kbps / 24-bit)
SUBTITLES:
Codec                           Language        Bitrate         Description
-----                           --------        -------         -----------
Presentation Graphics           Russian         51,274 kbps
FILES:
Name            Time In         Length          Size            Total Bitrate
----            -------         ------          ----            -------------
00002.M2TS      0:00:00.000     0:03:46.226     1 104 049 344   39 042
CHAPTERS:
Number          Time In         Length          Avg Video Rate  Max 1-Sec Rate  Max 1-Sec Time  Max 5-Sec Rate  Max 5-Sec Time  Max 10Sec Rate  Max 10Sec Time  Avg Frame Size  Max Frame Size  Max Frame Time
------          -------         ------          --------------  --------------  --------------  --------------  --------------  --------------  --------------  --------------  --------------  --------------
1               0:00:00.000     0:03:46.226     34 975 kbps     41 794 kbps     00:00:06.089    39 107 kbps     00:01:15.450    38 829 kbps     00:00:24.357    182 308 bytes   572 439 bytes   00:00:12.721
STREAM DIAGNOSTICS:
File            PID             Type            Codec           Language                Seconds                 Bitrate                 Bytes           Packets
----            ---             ----            -----           --------                --------------          --------------          -------------   -----
00002.M2TS      4113 (0x1011)   0x1B            AVC                                     1943,775                34 784                  8 451 449 225   45 958 796
00002.M2TS      4352 (0x1100)   0x86            DTS-HD MA       jpn (Japanese)          1943,775                2 093                   508 484 404     3 071 451
00002.M2TS      4608 (0x1200)   0x90            PGS             rus (Russian)           1943,775                42                      10 269 414      58 604
QUICK SUMMARY:
Disc Title: 2013 The Kingdom of Dreams and MadnessDisc Size: 47 072 720 974 bytesProtection: AACSBD-Java: NoPlaylist: 00010.MPLSSize: 1 104 049 344 bytesLength: 0:03:46.226Total Bitrate: 39,04 MbpsVideo: MPEG-4 AVC Video / 34965 kbps / 1080p / 23,976 fps / 16:9 / High Profile 4.1Audio: Japanese / DTS-HD Master Audio / 2.0 / 48 kHz / 2084 kbps / 24-bit (DTS Core: 2.0 / 48 kHz / 1509 kbps / 24-bit)Subtitle: Russian / 51,274 kbps
********************PLAYLIST: 00012.MPLS********************
Total   Video
Title                                                           Codec   Length  Movie Size      Disc Size       Bitrate Bitrate Main Audio Track                          Secondary Audio Track
-----                                                           ------  ------- --------------  --------------  ------- ------- ------------------                        ---------------------
00012.MPLS                                                      AVC     0:03:29 1 112 637 888   47 072 720 974  42,49   38,25   DTS-HD Master 2.0 2109Kbps (48kHz/24-bit)
DISC INFO:
Disc Title:     2013 The Kingdom of Dreams and Madness
Disc Size:      47 072 720 974 bytes
Protection:     AACS
BD-Java:        No
BDInfo:         0.5.8
PLAYLIST REPORT:
Name:                   00012.MPLS
Length:                 0:03:29.500 (h:m:s.ms)
Size:                   1 112 637 888 bytes
Total Bitrate:          42,49 Mbps
VIDEO:
Codec                   Bitrate             Description
-----                   -------             -----------
MPEG-4 AVC Video        38249 kbps          1080p / 23,976 fps / 16:9 / High Profile 4.1
AUDIO:
Codec                           Language        Bitrate         Description
-----                           --------        -------         -----------
DTS-HD Master Audio             Japanese        2109 kbps       2.0 / 48 kHz / 2109 kbps / 24-bit (DTS Core: 2.0 / 48 kHz / 1509 kbps / 24-bit)
SUBTITLES:
Codec                           Language        Bitrate         Description
-----                           --------        -------         -----------
Presentation Graphics           Russian         54,671 kbps
FILES:
Name            Time In         Length          Size            Total Bitrate
----            -------         ------          ----            -------------
00002.M2TS      0:00:00.000     0:03:29.500     1 112 637 888   42 487
CHAPTERS:
Number          Time In         Length          Avg Video Rate  Max 1-Sec Rate  Max 1-Sec Time  Max 5-Sec Rate  Max 5-Sec Time  Max 10Sec Rate  Max 10Sec Time  Avg Frame Size  Max Frame Size  Max Frame Time
------          -------         ------          --------------  --------------  --------------  --------------  --------------  --------------  --------------  --------------  --------------  --------------
1               0:00:00.000     0:03:29.500     38 259 kbps     40 028 kbps     00:03:15.987    38 965 kbps     00:03:15.153    38 834 kbps     00:01:39.516    199 423 bytes   414 371 bytes   00:03:23.870
STREAM DIAGNOSTICS:
File            PID             Type            Codec           Language                Seconds                 Bitrate                 Bytes           Packets
----            ---             ----            -----           --------                --------------          --------------          -------------   -----
00002.M2TS      4113 (0x1011)   0x1B            AVC                                     1943,775                34 784                  8 451 449 225   45 958 796
00002.M2TS      4352 (0x1100)   0x86            DTS-HD MA       jpn (Japanese)          1943,775                2 093                   508 484 404     3 071 451
00002.M2TS      4608 (0x1200)   0x90            PGS             rus (Russian)           1943,775                42                      10 269 414      58 604
QUICK SUMMARY:
Disc Title: 2013 The Kingdom of Dreams and MadnessDisc Size: 47 072 720 974 bytesProtection: AACSBD-Java: NoPlaylist: 00012.MPLSSize: 1 112 637 888 bytesLength: 0:03:29.500Total Bitrate: 42,49 MbpsVideo: MPEG-4 AVC Video / 38249 kbps / 1080p / 23,976 fps / 16:9 / High Profile 4.1Audio: Japanese / DTS-HD Master Audio / 2.0 / 48 kHz / 2109 kbps / 24-bit (DTS Core: 2.0 / 48 kHz / 1509 kbps / 24-bit)Subtitle: Russian / 54,671 kbps
********************PLAYLIST: 00009.MPLS********************
Total   Video
Title                                                           Codec   Length  Movie Size      Disc Size       Bitrate Bitrate Main Audio Track                          Secondary Audio Track
-----                                                           ------  ------- --------------  --------------  ------- ------- ------------------                        ---------------------
00009.MPLS                                                      AVC     0:03:23 1 009 846 848   47 072 720 974  39,64   35,51   DTS-HD Master 2.0 2104Kbps (48kHz/24-bit)
DISC INFO:
Disc Title:     2013 The Kingdom of Dreams and Madness
Disc Size:      47 072 720 974 bytes
Protection:     AACS
BD-Java:        No
BDInfo:         0.5.8
PLAYLIST REPORT:
Name:                   00009.MPLS
Length:                 0:03:23.828 (h:m:s.ms)
Size:                   1 009 846 848 bytes
Total Bitrate:          39,64 Mbps
VIDEO:
Codec                   Bitrate             Description
-----                   -------             -----------
MPEG-4 AVC Video        35511 kbps          1080p / 23,976 fps / 16:9 / High Profile 4.1
AUDIO:
Codec                           Language        Bitrate         Description
-----                           --------        -------         -----------
DTS-HD Master Audio             Japanese        2104 kbps       2.0 / 48 kHz / 2104 kbps / 24-bit (DTS Core: 2.0 / 48 kHz / 1509 kbps / 24-bit)
SUBTITLES:
Codec                           Language        Bitrate         Description
-----                           --------        -------         -----------
Presentation Graphics           Russian         58,925 kbps
FILES:
Name            Time In         Length          Size            Total Bitrate
----            -------         ------          ----            -------------
00002.M2TS      0:00:00.000     0:03:23.828     1 009 846 848   39 635
CHAPTERS:
Number          Time In         Length          Avg Video Rate  Max 1-Sec Rate  Max 1-Sec Time  Max 5-Sec Rate  Max 5-Sec Time  Max 10Sec Rate  Max 10Sec Time  Avg Frame Size  Max Frame Size  Max Frame Time
------          -------         ------          --------------  --------------  --------------  --------------  --------------  --------------  --------------  --------------  --------------  --------------
1               0:00:00.000     0:03:23.828     35 520 kbps     40 720 kbps     00:00:27.902    39 091 kbps     00:02:32.193    38 975 kbps     00:00:10.510    185 149 bytes   466 110 bytes   00:03:16.196
STREAM DIAGNOSTICS:
File            PID             Type            Codec           Language                Seconds                 Bitrate                 Bytes           Packets
----            ---             ----            -----           --------                --------------          --------------          -------------   -----
00002.M2TS      4113 (0x1011)   0x1B            AVC                                     1943,775                34 784                  8 451 449 225   45 958 796
00002.M2TS      4352 (0x1100)   0x86            DTS-HD MA       jpn (Japanese)          1943,775                2 093                   508 484 404     3 071 451
00002.M2TS      4608 (0x1200)   0x90            PGS             rus (Russian)           1943,775                42                      10 269 414      58 604
QUICK SUMMARY:
Disc Title: 2013 The Kingdom of Dreams and MadnessDisc Size: 47 072 720 974 bytesProtection: AACSBD-Java: NoPlaylist: 00009.MPLSSize: 1 009 846 848 bytesLength: 0:03:23.828Total Bitrate: 39,64 MbpsVideo: MPEG-4 AVC Video / 35511 kbps / 1080p / 23,976 fps / 16:9 / High Profile 4.1Audio: Japanese / DTS-HD Master Audio / 2.0 / 48 kHz / 2104 kbps / 24-bit (DTS Core: 2.0 / 48 kHz / 1509 kbps / 24-bit)Subtitle: Russian / 58,925 kbps
********************PLAYLIST: 00007.MPLS********************
Total   Video
Title                                                           Codec   Length  Movie Size      Disc Size       Bitrate Bitrate Main Audio Track                          Secondary Audio Track
-----                                                           ------  ------- --------------  --------------  ------- ------- ------------------                        ---------------------
00007.MPLS                                                      AVC     0:02:23 731 997 696     47 072 720 974  40,86   36,78   DTS-HD Master 2.0 2051Kbps (48kHz/24-bit)
DISC INFO:
Disc Title:     2013 The Kingdom of Dreams and Madness
Disc Size:      47 072 720 974 bytes
Protection:     AACS
BD-Java:        No
BDInfo:         0.5.8
PLAYLIST REPORT:
Name:                   00007.MPLS
Length:                 0:02:23.309 (h:m:s.ms)
Size:                   731 997 696 bytes
Total Bitrate:          40,86 Mbps
VIDEO:
Codec                   Bitrate             Description
-----                   -------             -----------
MPEG-4 AVC Video        36781 kbps          1080p / 23,976 fps / 16:9 / High Profile 4.1
AUDIO:
Codec                           Language        Bitrate         Description
-----                           --------        -------         -----------
DTS-HD Master Audio             Japanese        2051 kbps       2.0 / 48 kHz / 2051 kbps / 24-bit (DTS Core: 2.0 / 48 kHz / 1509 kbps / 24-bit)
SUBTITLES:
Codec                           Language        Bitrate         Description
-----                           --------        -------         -----------
Presentation Graphics           Russian         37,754 kbps
FILES:
Name            Time In         Length          Size            Total Bitrate
----            -------         ------          ----            -------------
00002.M2TS      0:00:00.000     0:02:23.309     731 997 696     40 862
CHAPTERS:
Number          Time In         Length          Avg Video Rate  Max 1-Sec Rate  Max 1-Sec Time  Max 5-Sec Rate  Max 5-Sec Time  Max 10Sec Rate  Max 10Sec Time  Avg Frame Size  Max Frame Size  Max Frame Time
------          -------         ------          --------------  --------------  --------------  --------------  --------------  --------------  --------------  --------------  --------------  --------------
1               0:00:00.000     0:02:23.309     36 794 kbps     43 730 kbps     00:02:21.850    39 709 kbps     00:02:17.887    39 190 kbps     00:02:12.924    191 771 bytes   558 552 bytes   00:01:29.672
STREAM DIAGNOSTICS:
File            PID             Type            Codec           Language                Seconds                 Bitrate                 Bytes           Packets
----            ---             ----            -----           --------                --------------          --------------          -------------   -----
00002.M2TS      4113 (0x1011)   0x1B            AVC                                     1943,775                34 784                  8 451 449 225   45 958 796
00002.M2TS      4352 (0x1100)   0x86            DTS-HD MA       jpn (Japanese)          1943,775                2 093                   508 484 404     3 071 451
00002.M2TS      4608 (0x1200)   0x90            PGS             rus (Russian)           1943,775                42                      10 269 414      58 604
QUICK SUMMARY:
Disc Title: 2013 The Kingdom of Dreams and MadnessDisc Size: 47 072 720 974 bytesProtection: AACSBD-Java: NoPlaylist: 00007.MPLSSize: 731 997 696 bytesLength: 0:02:23.309Total Bitrate: 40,86 MbpsVideo: MPEG-4 AVC Video / 36781 kbps / 1080p / 23,976 fps / 16:9 / High Profile 4.1Audio: Japanese / DTS-HD Master Audio / 2.0 / 48 kHz / 2051 kbps / 24-bit (DTS Core: 2.0 / 48 kHz / 1509 kbps / 24-bit)Subtitle: Russian / 37,754 kbps
********************PLAYLIST: 00011.MPLS********************
Total   Video
Title                                                           Codec   Length  Movie Size      Disc Size       Bitrate Bitrate Main Audio Track                          Secondary Audio Track
-----                                                           ------  ------- --------------  --------------  ------- ------- ------------------                        ---------------------
00011.MPLS                                                      AVC     0:02:22 477 542 592     47 072 720 974  26,81   23,25   DTS-HD Master 2.0 2084Kbps (48kHz/24-bit)
DISC INFO:
Disc Title:     2013 The Kingdom of Dreams and Madness
Disc Size:      47 072 720 974 bytes
Protection:     AACS
BD-Java:        No
BDInfo:         0.5.8
PLAYLIST REPORT:
Name:                   00011.MPLS
Length:                 0:02:22.517 (h:m:s.ms)
Size:                   477 542 592 bytes
Total Bitrate:          26,81 Mbps
VIDEO:
Codec                   Bitrate             Description
-----                   -------             -----------
MPEG-4 AVC Video        23253 kbps          1080p / 23,976 fps / 16:9 / High Profile 4.1
AUDIO:
Codec                           Language        Bitrate         Description
-----                           --------        -------         -----------
DTS-HD Master Audio             Japanese        2084 kbps       2.0 / 48 kHz / 2084 kbps / 24-bit (DTS Core: 2.0 / 48 kHz / 1509 kbps / 24-bit)
SUBTITLES:
Codec                           Language        Bitrate         Description
-----                           --------        -------         -----------
Presentation Graphics           Russian         36,709 kbps
FILES:
Name            Time In         Length          Size            Total Bitrate
----            -------         ------          ----            -------------
00002.M2TS      0:00:00.000     0:02:22.517     477 542 592     26 806
CHAPTERS:
Number          Time In         Length          Avg Video Rate  Max 1-Sec Rate  Max 1-Sec Time  Max 5-Sec Rate  Max 5-Sec Time  Max 10Sec Rate  Max 10Sec Time  Avg Frame Size  Max Frame Size  Max Frame Time
------          -------         ------          --------------  --------------  --------------  --------------  --------------  --------------  --------------  --------------  --------------  --------------
1               0:00:00.000     0:02:22.517     23 266 kbps     39 855 kbps     00:02:14.884    38 908 kbps     00:02:14.884    34 162 kbps     00:02:12.090    121 263 bytes   365 712 bytes   00:02:20.223
STREAM DIAGNOSTICS:
File            PID             Type            Codec           Language                Seconds                 Bitrate                 Bytes           Packets
----            ---             ----            -----           --------                --------------          --------------          -------------   -----
00002.M2TS      4113 (0x1011)   0x1B            AVC                                     1943,775                34 784                  8 451 449 225   45 958 796
00002.M2TS      4352 (0x1100)   0x86            DTS-HD MA       jpn (Japanese)          1943,775                2 093                   508 484 404     3 071 451
00002.M2TS      4608 (0x1200)   0x90            PGS             rus (Russian)           1943,775                42                      10 269 414      58 604
QUICK SUMMARY:
Disc Title: 2013 The Kingdom of Dreams and MadnessDisc Size: 47 072 720 974 bytesProtection: AACSBD-Java: NoPlaylist: 00011.MPLSSize: 477 542 592 bytesLength: 0:02:22.517Total Bitrate: 26,81 MbpsVideo: MPEG-4 AVC Video / 23253 kbps / 1080p / 23,976 fps / 16:9 / High Profile 4.1Audio: Japanese / DTS-HD Master Audio / 2.0 / 48 kHz / 2084 kbps / 24-bit (DTS Core: 2.0 / 48 kHz / 1509 kbps / 24-bit)Subtitle: Russian / 36,709 kbps
********************PLAYLIST: 00005.MPLS********************
Total   Video
Title                                                           Codec   Length  Movie Size      Disc Size       Bitrate Bitrate Main Audio Track                          Secondary Audio Track
-----                                                           ------  ------- --------------  --------------  ------- ------- ------------------                        ---------------------
00005.MPLS                                                      AVC     0:04:10 1 345 941 504   47 072 720 974  43,03   39,40   LPCM 2.0 1536Kbps (48kHz/16-bit)
DISC INFO:
Disc Title:     2013 The Kingdom of Dreams and Madness
Disc Size:      47 072 720 974 bytes
Protection:     AACS
BD-Java:        No
BDInfo:         0.5.8
PLAYLIST REPORT:
Name:                   00005.MPLS
Length:                 0:04:10.250 (h:m:s.ms)
Size:                   1 345 941 504 bytes
Total Bitrate:          43,03 Mbps
VIDEO:
Codec                   Bitrate             Description
-----                   -------             -----------
MPEG-4 AVC Video        39398 kbps          1080p / 23,976 fps / 16:9 / High Profile 4.1
AUDIO:
Codec                           Language        Bitrate         Description
-----                           --------        -------         -----------
LPCM Audio                      Japanese        1536 kbps       2.0 / 48 kHz / 1536 kbps / 16-bit
FILES:
Name            Time In         Length          Size            Total Bitrate
----            -------         ------          ----            -------------
00005.M2TS      0:00:00.000     0:04:10.250     1 345 941 504   43 027
CHAPTERS:
Number          Time In         Length          Avg Video Rate  Max 1-Sec Rate  Max 1-Sec Time  Max 5-Sec Rate  Max 5-Sec Time  Max 10Sec Rate  Max 10Sec Time  Avg Frame Size  Max Frame Size  Max Frame Time
------          -------         ------          --------------  --------------  --------------  --------------  --------------  --------------  --------------  --------------  --------------  --------------
1               0:00:00.000     0:04:09.249     39 402 kbps     51 097 kbps     00:00:19.310    41 494 kbps     00:00:15.223    40 582 kbps     00:00:10.176    205 390 bytes   638 883 bytes   00:00:19.769
2               0:04:09.249     0:00:01.000     38 293 kbps     0 kbps          00:00:00.000    0 kbps          00:00:00.000    0 kbps          00:00:00.000    208 323 bytes   208 325 bytes   00:04:09.290
STREAM DIAGNOSTICS:
File            PID             Type            Codec           Language                Seconds                 Bitrate                 Bytes           Packets
----            ---             ----            -----           --------                --------------          --------------          -------------   -----
00005.M2TS      4113 (0x1011)   0x1B            AVC                                     250,083                 39 424                  1 232 404 585   6 701 390
00005.M2TS      4352 (0x1100)   0x80            LPCM            jpn (Japanese)          250,083                 1 543                   48 249 164      300 306
QUICK SUMMARY:
Disc Title: 2013 The Kingdom of Dreams and MadnessDisc Size: 47 072 720 974 bytesProtection: AACSBD-Java: NoPlaylist: 00005.MPLSSize: 1 345 941 504 bytesLength: 0:04:10.250Total Bitrate: 43,03 MbpsVideo: MPEG-4 AVC Video / 39398 kbps / 1080p / 23,976 fps / 16:9 / High Profile 4.1Audio: Japanese / LPCM Audio / 2.0 / 48 kHz / 1536 kbps / 16-bit
********************PLAYLIST: 00003.MPLS********************
Total   Video
Title                                                           Codec   Length  Movie Size      Disc Size       Bitrate Bitrate Main Audio Track                          Secondary Audio Track
-----                                                           ------  ------- --------------  --------------  ------- ------- ------------------                        ---------------------
00003.MPLS                                                      AVC     0:02:13 637 845 504     47 072 720 974  38,33   34,35   DTS-HD Master 2.0 2069Kbps (48kHz/24-bit)
DISC INFO:
Disc Title:     2013 The Kingdom of Dreams and Madness
Disc Size:      47 072 720 974 bytes
Protection:     AACS
BD-Java:        No
BDInfo:         0.5.8
PLAYLIST REPORT:
Name:                   00003.MPLS
Length:                 0:02:13.133 (h:m:s.ms)
Size:                   637 845 504 bytes
Total Bitrate:          38,33 Mbps
VIDEO:
Codec                   Bitrate             Description
-----                   -------             -----------
MPEG-4 AVC Video        34350 kbps          1080p / 23,976 fps / 16:9 / High Profile 4.1
AUDIO:
Codec                           Language        Bitrate         Description
-----                           --------        -------         -----------
DTS-HD Master Audio             Japanese        2069 kbps       2.0 / 48 kHz / 2069 kbps / 24-bit (DTS Core: 2.0 / 48 kHz / 1509 kbps / 24-bit)
SUBTITLES:
Codec                           Language        Bitrate         Description
-----                           --------        -------         -----------
Presentation Graphics           Russian         24,348 kbps
FILES:
Name            Time In         Length          Size            Total Bitrate
----            -------         ------          ----            -------------
00003.M2TS      0:00:00.000     0:02:13.133     637 845 504     38 328
CHAPTERS:
Number          Time In         Length          Avg Video Rate  Max 1-Sec Rate  Max 1-Sec Time  Max 5-Sec Rate  Max 5-Sec Time  Max 10Sec Rate  Max 10Sec Time  Avg Frame Size  Max Frame Size  Max Frame Time
------          -------         ------          --------------  --------------  --------------  --------------  --------------  --------------  --------------  --------------  --------------  --------------
1               0:00:00.000     0:02:12.131     34 497 kbps     40 719 kbps     00:00:44.836    39 027 kbps     00:01:37.180    38 841 kbps     00:00:43.752    179 796 bytes   502 067 bytes   00:01:53.613
2               0:02:12.131     0:00:01.001     14 916 kbps     0 kbps          00:00:00.000    0 kbps          00:00:00.000    0 kbps          00:00:00.000    81 145 bytes    203 320 bytes   00:02:13.007
STREAM DIAGNOSTICS:
File            PID             Type            Codec           Language                Seconds                 Bitrate                 Bytes           Packets
----            ---             ----            -----           --------                --------------          --------------          -------------   -----
00003.M2TS      4113 (0x1011)   0x1B            AVC                                     132,966                 34 393                  571 640 340     3 108 596
00003.M2TS      4352 (0x1100)   0x86            DTS-HD MA       jpn (Japanese)          132,966                 2 072                   34 433 464      206 675
00003.M2TS      4608 (0x1200)   0x90            PGS             rus (Russian)           132,966                 24                      405 191         2 336
QUICK SUMMARY:
Disc Title: 2013 The Kingdom of Dreams and MadnessDisc Size: 47 072 720 974 bytesProtection: AACSBD-Java: NoPlaylist: 00003.MPLSSize: 637 845 504 bytesLength: 0:02:13.133Total Bitrate: 38,33 MbpsVideo: MPEG-4 AVC Video / 34350 kbps / 1080p / 23,976 fps / 16:9 / High Profile 4.1Audio: Japanese / DTS-HD Master Audio / 2.0 / 48 kHz / 2069 kbps / 24-bit (DTS Core: 2.0 / 48 kHz / 1509 kbps / 24-bit)Subtitle: Russian / 24,348 kbps
********************PLAYLIST: 00004.MPLS********************
Total   Video
Title                                                           Codec   Length  Movie Size      Disc Size       Bitrate Bitrate Main Audio Track                          Secondary Audio Track
-----                                                           ------  ------- --------------  --------------  ------- ------- ------------------                        ---------------------
00004.MPLS                                                      AVC     0:01:32 432 684 288     47 072 720 974  37,59   33,48   DTS-HD Master 2.0 2147Kbps (48kHz/24-bit)
DISC INFO:
Disc Title:     2013 The Kingdom of Dreams and Madness
Disc Size:      47 072 720 974 bytes
Protection:     AACS
BD-Java:        No
BDInfo:         0.5.8
PLAYLIST REPORT:
Name:                   00004.MPLS
Length:                 0:01:32.091 (h:m:s.ms)
Size:                   432 684 288 bytes
Total Bitrate:          37,59 Mbps
VIDEO:
Codec                   Bitrate             Description
-----                   -------             -----------
MPEG-4 AVC Video        33482 kbps          1080i / 29,970 fps / 16:9 / High Profile 4.1
AUDIO:
Codec                           Language        Bitrate         Description
-----                           --------        -------         -----------
DTS-HD Master Audio             Japanese        2147 kbps       2.0 / 48 kHz / 2147 kbps / 24-bit (DTS Core: 2.0 / 48 kHz / 1509 kbps / 24-bit)
SUBTITLES:
Codec                           Language        Bitrate         Description
-----                           --------        -------         -----------
Presentation Graphics           Russian         73,087 kbps
FILES:
Name            Time In         Length          Size            Total Bitrate
----            -------         ------          ----            -------------
00004.M2TS      0:00:00.000     0:01:32.091     432 684 288     37 574
CHAPTERS:
Number          Time In         Length          Avg Video Rate  Max 1-Sec Rate  Max 1-Sec Time  Max 5-Sec Rate  Max 5-Sec Time  Max 10Sec Rate  Max 10Sec Time  Avg Frame Size  Max Frame Size  Max Frame Time
------          -------         ------          --------------  --------------  --------------  --------------  --------------  --------------  --------------  --------------  --------------  --------------
1               0:00:00.000     0:01:30.957     33 905 kbps     50 823 kbps     00:00:21.388    41 035 kbps     00:00:21.388    39 298 kbps     00:00:21.388    141 360 bytes   725 443 bytes   00:00:22.355
2               0:01:30.957     0:00:01.134     567 kbps        642 kbps        00:01:30.957    0 kbps          00:00:00.000    0 kbps          00:00:00.000    2 596 bytes     75 708 bytes    00:01:31.024
STREAM DIAGNOSTICS:
File            PID             Type            Codec           Language                Seconds                 Bitrate                 Bytes           Packets
----            ---             ----            -----           --------                --------------          --------------          -------------   -----
00004.M2TS      4113 (0x1011)   0x1B            AVC                                     92,025                  33 550                  385 927 496     2 099 063
00004.M2TS      4352 (0x1100)   0x86            DTS-HD MA       jpn (Japanese)          92,025                  2 150                   24 726 960      148 467
00004.M2TS      4608 (0x1200)   0x90            PGS             rus (Russian)           92,025                  73                      841 641         4 854
QUICK SUMMARY:
Disc Title: 2013 The Kingdom of Dreams and MadnessDisc Size: 47 072 720 974 bytesProtection: AACSBD-Java: NoPlaylist: 00004.MPLSSize: 432 684 288 bytesLength: 0:01:32.091Total Bitrate: 37,59 MbpsVideo: MPEG-4 AVC Video / 33482 kbps / 1080i / 29,970 fps / 16:9 / High Profile 4.1Audio: Japanese / DTS-HD Master Audio / 2.0 / 48 kHz / 2147 kbps / 24-bit (DTS Core: 2.0 / 48 kHz / 1509 kbps / 24-bit)Subtitle: Russian / 73,087 kbps
********************PLAYLIST: 00000.MPLS********************
Total   Video
Title                                                           Codec   Length  Movie Size      Disc Size       Bitrate Bitrate Main Audio Track                          Secondary Audio Track
-----                                                           ------  ------- --------------  --------------  ------- ------- ------------------                        ---------------------
00000.MPLS                                                      AVC     0:00:49 40 003 584      47 072 720 974  6,46    5,89    DD AC3 2.0 192Kbps
DISC INFO:
Disc Title:     2013 The Kingdom of Dreams and Madness
Disc Size:      47 072 720 974 bytes
Protection:     AACS
BD-Java:        No
BDInfo:         0.5.8
PLAYLIST REPORT:
Name:                   00000.MPLS
Length:                 0:00:49.549 (h:m:s.ms)
Size:                   40 003 584 bytes
Total Bitrate:          6,46 Mbps
VIDEO:
Codec                   Bitrate             Description
-----                   -------             -----------
MPEG-4 AVC Video        5891 kbps           1080p / 23,976 fps / 16:9 / High Profile 4.1
AUDIO:
Codec                           Language        Bitrate         Description
-----                           --------        -------         -----------
Dolby Digital Audio             Japanese        192 kbps        2.0 / 48 kHz / 192 kbps
FILES:
Name            Time In         Length          Size            Total Bitrate
----            -------         ------          ----            -------------
00000.M2TS      0:00:00.000     0:00:49.549     40 003 584      6 459
CHAPTERS:
Number          Time In         Length          Avg Video Rate  Max 1-Sec Rate  Max 1-Sec Time  Max 5-Sec Rate  Max 5-Sec Time  Max 10Sec Rate  Max 10Sec Time  Avg Frame Size  Max Frame Size  Max Frame Time
------          -------         ------          --------------  --------------  --------------  --------------  --------------  --------------  --------------  --------------  --------------  --------------
1               0:00:00.000     0:00:30.029     6 956 kbps      22 798 kbps     00:00:28.403    9 159 kbps      00:00:24.399    7 967 kbps      00:00:19.394    36 217 bytes    548 217 bytes   00:00:10.510
2               0:00:30.029     0:00:18.518     4 477 kbps      12 876 kbps     00:00:46.921    5 790 kbps      00:00:30.989    4 963 kbps      00:00:30.989    23 341 bytes    285 581 bytes   00:00:44.627
3               0:00:48.548     0:00:01.000     77 kbps         0 kbps          00:00:00.000    0 kbps          00:00:00.000    0 kbps          00:00:00.000    418 bytes       527 bytes       00:00:49.507
STREAM DIAGNOSTICS:
File            PID             Type            Codec           Language                Seconds                 Bitrate                 Bytes           Packets
----            ---             ----            -----           --------                --------------          --------------          -------------   -----
00000.M2TS      4113 (0x1011)   0x1B            AVC                                     49,424                  5 906                   36 484 995      198 934
00000.M2TS      4352 (0x1100)   0x81            AC3             jpn (Japanese)          49,424                  193                     1 189 632       7 745
QUICK SUMMARY:
Disc Title: 2013 The Kingdom of Dreams and MadnessDisc Size: 47 072 720 974 bytesProtection: AACSBD-Java: NoPlaylist: 00000.MPLSSize: 40 003 584 bytesLength: 0:00:49.549Total Bitrate: 6,46 MbpsVideo: MPEG-4 AVC Video / 5891 kbps / 1080p / 23,976 fps / 16:9 / High Profile 4.1Audio: Japanese / Dolby Digital Audio / 2.0 / 48 kHz / 192 kbps

Отличия

http://torrentfilm.net/forum/viewtopic.php?t=4921543
http://torrentfilm.net/forum/viewtopic.php?t=4905849
-
Blu-ray, альтернативный перевод полнометражки
[spoiler="Скриншоты">

Скриншоты меню [spoiler="Скриншоты

[Профиль] [ЛС]
Кто просматривает тему:

Форум Тема Автор Размер
Nat Geo Wild Nat Geo Wild: Дикое царство Перу / Peru's Wild Kingdom (Tenley Wurglitz) [1997 г., Документальный, научно-популярный, HDTVRip-AVC 720p] skorpionN 1.52 GB
Viasat Nature Viasat Nature: Путешествие в царство зверей. Бурные воды реки Эльба / Expeditionen ins Tierreich. Die Elbe [серии 1-2 из 2] (Svenja & Ralph Schieke) [2014 г., Документальный, познавательный, природа,... skorpionN 1.33 GB
Флора и фауна В подводном царстве / The Blue Realm (2004) HDTVRip [H.264/720p] [1-8 серия] KottoSoft 10.47 GB
Мультфильмы СССР Вовка в тридевятом царстве / Сборник мультфильмов (1954) DVD5 by гаврила Белочка 4.31 GB
Фильмы (HD Rips | 720p, 1080p) Джеки в царстве женщин / Jacky au royaume des filles (2014) BDRip 720p | D достали все 4.61 GB
Фильмы 2014 года Джеки в царстве женщин / Jacky au royaume des filles (2014) HDRip | D достали все 1.46 GB
Фильмы 2014 года Джеки в царстве женщин / Jacky au royaume des filles (2014) HDRip | Лицензия достали все 748 MB
Фильмы (HD Rips | 720p, 1080p) Запретное царство / The Forbidden Kingdom (2008) BDRip 720р Russian Mafia 3.03 GB
Показать сообщения:    

Текущее время: Сегодня 02:44

Часовой пояс: GMT



Вы не можете начинать темы
Вы не можете отвечать на сообщения
Вы не можете редактировать свои сообщения
Вы не можете удалять свои сообщения
Вы не можете голосовать в опросах
Вы не можете прикреплять файлы к сообщениям
Вы не можете скачивать файлы