Царство Грёз и Безумия / The Kingdom of Dreams and Madness (Мами Сунада / Mami Sunada) [JAP+SUB] [2013, документальный, BDRip 720p]

 
Автор Сообщение

TorrentFilm ®

Пол:

Стаж: 2 года

Сообщений: 7741



Награды: Нет

Торрент-статистика

Создавать темы 06-Янв-2015 00:00

[Цитировать]

Царство Грёз и Безумия / The Kingdom of Dreams and Madness- Год выпуска: 2013
Страна: Япония
Жанр: документальный
Продолжительность: 1:57:54
Режиссер: Мами Сунада / Mami Sunada-Перевод: русские субтитры
Доп. инфо о переводе: автор перевода — bocca_chiusa-Описание: Документальный фильм Мами Сунады о Хаяо Миядзаки, работе над фильмом «Ветер крепчает» и жизни внутри студии «Гибли».-Сэмпл: https://www.mediafire.com/?39f7chnc9m7km41
Тип релиза: BDRip 720p
Контейнер: MKV
Доп. инфо: автор рипа — Jubowo @ Wiki
Видео: AVC (8 bit), 1280×720 (16:9), 7 320 Kbps, 23.976 fps
Аудио: японский (оригинал), AC-3, 640 Kbps, 48 000 Hz, 6 ch
Формат субтитров: softsub (SRT)

MediaInfo

General
Unique ID : 181135032341283889734638742681690019906 (0×88455699479BAFC1BBE92201C25B9842)
Complete name : D:\Torrents\The.Kingdom.of.Dreams.and.Madness.2013.720p.BluRay.x264.rus.sub.mkv
Format : Matroska
Format version : Version 4 / Version 2
File size : 6.56 GiB
Duration : 1h 57mn
Overall bit rate : 7 961 Kbps
Movie name : The Kingdom of Dreams and Madness
Encoded date : UTC 2015-01-03 07:34:42
Writing application : mkvmerge v7.3.0 (’Nouages’) 32bit built on Oct 22 2014 18:44:01
Writing library : libebml v1.3.0 + libmatroska v1.4.1
DURATION : 01:55:17.840000000
NUMBER_OF_FRAMES : 1373
NUMBER_OF_BYTES : 91746
_STATISTICS_WRITING_APP : mkvmerge v7.3.0 (’Nouages’) 32bit built on Oct 22 2014 18:44:01
_STATISTICS_WRITING_DATE_UTC : 2015-01-03 07:34:42
_STATISTICS_TAGS : BPS DURATION NUMBER_OF_FRAMES NUMBER_OF_BYTES
Video
ID : 1
Format : AVC
Format/Info : Advanced Video Codec
Format profile : High@L4.1
Format settings, CABAC : Yes
Format settings, ReFrames : 9 frames
Codec ID : V_MPEG4/ISO/AVC
Duration : 1h 57mn
Bit rate : 7 320 Kbps
Width : 1 280 pixels
Height : 720 pixels
Display aspect ratio : 16:9
Frame rate mode : Constant
Frame rate : 23.976 fps
Color space : YUV
Chroma subsampling : 4:2:0
Bit depth : 8 bits
Scan type : Progressive
Bits/(Pixel*Frame) : 0.331
Stream size : 5.90 GiB (90%)
Writing library : x264 core 129 r2245+704+36 8e61944 tMod+MixAQ [8-bit@4:2:0 X86_64]
Encoding settings : cabac=1 / ref=9 / deblock=1:-3:-3 / analyse=0×3:0×133 / me=umh / subme=11 / psy=1 / fade_compensate=0.00 / psy_rd=1.05:0.10 / mixed_ref=1 / me_range=32 / chroma_me=1 / trellis=2 / 8×8dct=1 / cqm=0 / deadzone=21,11 / fast_pskip=0 / chroma_qp_offset=-3 / threads=18 / lookahead_threads=3 / sliced_threads=0 / nr=0 / decimate=1 / interlaced=0 / bluray_compat=0 / constrained_intra=0 / fgo=0 / bframes=8 / b_pyramid=2 / b_adapt=2 / b_bias=0 / direct=3 / weightb=1 / open_gop=0 / weightp=2 / keyint=250 / keyint_min=23 / scenecut=40 / intra_refresh=0 / rc=2pass / mbtree=0 / bitrate=7320 / ratetol=1.0 / qcomp=0.70 / qpmin=0 / qpmax=69 / qpstep=4 / cplxblur=20.0 / qblur=0.5 / ip_ratio=1.20 / pb_ratio=1.10 / aq=3 / aq-strength=0.90 / aq-sensitivity=10.00 / aq-ifactor=1.00 / aq-pfactor=1.00 / aq-bfactor=1.00 / aq2=0
Language : Japanese
Default : Yes
Forced : No
DURATION : 01:57:54.067000000
NUMBER_OF_FRAMES : 169608
NUMBER_OF_BYTES : 6472095075
_STATISTICS_WRITING_APP : mkvmerge v7.3.0 (’Nouages’) 32bit built on Oct 22 2014 18:44:01
_STATISTICS_WRITING_DATE_UTC : 2015-01-03 07:34:42
_STATISTICS_TAGS : BPS DURATION NUMBER_OF_FRAMES NUMBER_OF_BYTES
Matrix coefficients : BT.709
Audio
ID : 2
Format : AC-3
Format/Info : Audio Coding 3
Mode extension : CM (complete main)
Format settings, Endianness : Big
Codec ID : A_AC3
Duration : 1h 57mn
Bit rate mode : Constant
Bit rate : 640 Kbps
Channel(s) : 6 channels
Channel positions : Front: L C R, Side: L R, LFE
Sampling rate : 48.0 KHz
Bit depth : 16 bits
Compression mode : Lossy
Stream size : 540 MiB (8%)
Language : Japanese
Default : Yes
Forced : No
Text
ID : 3
Format : UTF-8
Codec ID : S_TEXT/UTF8
Codec ID/Info : UTF-8 Plain Text
Language : Russian
Default : Yes
Forced : No

Скриншоты

[Профиль] [ЛС]
Кто просматривает тему:

Форум Тема Автор Размер
Nat Geo Wild Nat Geo Wild: Дикое царство Перу / Peru's Wild Kingdom (Tenley Wurglitz) [1997 г., Документальный, научно-популярный, HDTVRip-AVC 720p] skorpionN 1.52 GB
Viasat Nature Viasat Nature: Путешествие в царство зверей. Бурные воды реки Эльба / Expeditionen ins Tierreich. Die Elbe [серии 1-2 из 2] (Svenja & Ralph Schieke) [2014 г., Документальный, познавательный, природа,... skorpionN 1.33 GB
Флора и фауна В подводном царстве / The Blue Realm (2004) HDTVRip [H.264/720p] [1-8 серия] KottoSoft 10.47 GB
Мультфильмы СССР Вовка в тридевятом царстве / Сборник мультфильмов (1954) DVD5 by гаврила Белочка 4.31 GB
Фильмы (HD Rips | 720p, 1080p) Джеки в царстве женщин / Jacky au royaume des filles (2014) BDRip 720p | D достали все 4.61 GB
Фильмы 2014 года Джеки в царстве женщин / Jacky au royaume des filles (2014) HDRip | D достали все 1.46 GB
Фильмы 2014 года Джеки в царстве женщин / Jacky au royaume des filles (2014) HDRip | Лицензия достали все 748 MB
Фильмы (HD Rips | 720p, 1080p) Запретное царство / The Forbidden Kingdom (2008) BDRip 720р Russian Mafia 3.03 GB
Показать сообщения:    

Текущее время: Сегодня 21:34

Часовой пояс: GMT



Вы не можете начинать темы
Вы не можете отвечать на сообщения
Вы не можете редактировать свои сообщения
Вы не можете удалять свои сообщения
Вы не можете голосовать в опросах
Вы не можете прикреплять файлы к сообщениям
Вы не можете скачивать файлы