Цари и пророки / Of Kings and Prophets (Сезон 1, Серия 1-9 из 13) (Джеффри Начманофф, Дуан Кларк) [2016, Историческая Драма , WEB-DLRip][1080p] [DD5.1] [BaibaKo , English]

 
Автор Сообщение

Враг Нароода ®

Стаж: 1 год 8 месяцев

Сообщений: 111



Награды: 2 (Подробнее)

За внесенный вклад в развитие сайта (Количество: 1) Mega Seeder 1 (Количество: 1)
Торрент-статистика

Создавать темы 08-Апр-2016 16:26

[Цитировать]

--Цари и пророки / Of Kings and Prophets Сезон 1, Серия 1-9 из 13 -- --Год выпуска: 2016
Выпущено: США ,ABC Studios, BoomGen Studios
Жанр: Историческая Драма
Продолжительность: 00:44:00
Сезон:1
Серия: 1-9
Количество серий в сезоне: 13
Озвучка 1: Профессиональный многоголосый - BaibaKo -Русский
Озвучка 2: Профессиональный многоголосый - Английский - Оригинал
Субтитры: :НЕТ --
Режиссер: Джеффри Начманофф, Дуан Кларк--В ролях: Рэй Уинстон, Симона Кэссел, Джеймс Флойд, Элоди Юнг, Келси Иган, Джо Ваз-- «Цари и пророки» — библейское сказание об амбициях и коварстве. Эпопея об измождённом войнами царе Сауле, всесильном и гордом пророке и находчивом юном пастухе. Действие разворачивается более 2000 лет назад, в эпоху Ветхого Завета.-- --Качество :WEB-DLRip-AVC 1080p
Формат: MKV
Видео кодек: H264
Видео: 5297Кбит/сек,1920х1080(16.9),в 24.108кадр/сек,AVC(High@L4)(CABAC/2 Ref Frames)
Аудио Кодек:AC3
Аудио #1:AC3 , 384 Kbps, 48.0 KHz, 6 ch- BaibaKo -Русский
Аудио #2: AC3, 384 Kbps, 48.0 KHz,6 ch - - English - Оригинал--

Доп. информация:

Звуковая дорожка сделана путем наложения чистого голоса озвучивателей на центральный канал оригинальной дорожки. Качество идентично звуковой дорожке.
--

Список эпизодов сезона


1. Кровавая жертва
2. Нечестивые же да посрамятся
3. Да не усну я сном мертвым
4. Звери в тростнике
5. Не много ты умалил его пред ангелами
6. Честь в пыли
7. Обучающий мои руки войне
8. Сокруши зубы нечестивых
9.
--

MediaInfo сезона

Общее
Уникальный идентификатор : 205704120265045427439039946516003469928 (0x9AC12C2851D1F34184931832DEC2BA68)
Полное имя : B:\Of_Kings_&_ Prophets_2016_S01_[BaibaKo]_DD5.1_N.B_WEB-DL_1080_Rus_Eng\Of_Kings_&_ Prophets_2016_S01Е01_[BaibaKo]_DD5.1_N.B_WEB-DL_1080_Rus_Eng.mkv
Формат : Matroska
Версия формата : Version 4 / Version 2
Размер файла : 1,87 Гбайт
Продолжительность : 44 м.
Режим общего битрейта : Переменный
Общий поток : 6067 Кбит/сек
Название фильма : Of_Kings_&_ Prophets_2016_S01Е01_[BaibaKo]_DD5.1_N.B_WEB-DL_1080_Rus_Eng
Дата кодирования : UTC 2016-07-16 10:38:11
Программа кодирования : mkvmerge v9.2.0 ('Photograph') 64bit
Библиотека кодирования : libebml v1.3.3 + libmatroska v1.4.4
Видео
Идентификатор : 1
Формат : AVC
Формат/Информация : Advanced Video Codec
Профиль формата : High@L4
Параметр CABAC формата : Да
Параметр ReFrames формата : 2 кадра
Параметр GOP формата : M=2, N=15
Идентификатор кодека : V_MPEG4/ISO/AVC
Продолжительность : 44 м.
Вид битрейта : Переменный
Битрейт : 5297 Кбит/сек
Максимальный битрейт : 16,0 Мбит/сек
Ширина : 1920 пикселей
Высота : 1080 пикселей
Соотношение сторон : 16:9
Режим частоты кадров : Переменный
Частота кадров : 24,108 кадра/сек
Частота кадров в оригинале : 29,970 (30000/1001) кадров/сек
Цветовое пространство : YUV
Субдискретизация насыщенности : 4:2:0
Битовая глубина : 8 бит
Тип развёртки : Прогрессивная
Бит/(Пиксели*Кадры) : 0.106
Размер потока : 1,63 Гбайт (87%)
Заголовок : Of_Kings_&_ Prophets_2016_S01Е01_[BaibaKo]_DD5.1_N.B_WEB-DL_1080_Rus_Eng
Язык : English
Default : Нет
Forced : Нет
Аудио #1
Идентификатор : 2
Формат : AC-3
Формат/Информация : Audio Coding 3
Расширение режима : CM (complete main)
Параметр Endianness формата : Big
Идентификатор кодека : A_AC3
Продолжительность : 44 м.
Вид битрейта : Постоянный
Битрейт : 384 Кбит/сек
Каналы : 6 каналов
Расположение каналов : Front: L C R, Side: L R, LFE
Частота : 48,0 КГц
Частота кадров : 31,250 кадров/сек (1536 spf)
Метод сжатия : С потерями
Размер потока : 121 Мбайт (6%)
Заголовок : BaibaKo
Язык : Russian
Default : Нет
Forced : Нет
Аудио #2
Идентификатор : 3
Формат : AC-3
Формат/Информация : Audio Coding 3
Расширение режима : CM (complete main)
Параметр Endianness формата : Big
Идентификатор кодека : A_AC3
Продолжительность : 44 м.
Вид битрейта : Постоянный
Битрейт : 384 Кбит/сек
Каналы : 6 каналов
Расположение каналов : Front: L C R, Side: L R, LFE
Частота : 48,0 КГц
Частота кадров : 31,250 кадров/сек (1536 spf)
Метод сжатия : С потерями
Размер потока : 121 Мбайт (6%)
Заголовок : Original
Язык : English
Default : Нет
Forced : Нет
--

Скриншоты

-- -- Внимание! Раздача ведётся путём добавления новых серий!--

Внимание! Раздача ведётся путём добавления новых серий!

Раздача ведётся путём добавления новых серий; при каждом добавлении создётся новый торрент.
Чтобы начать докачку новой серии, пользователям необходимо сделать следующее:
1. остановить скачивание,
2. удалить старый торрент у себя из клиента (старые серии удалять не надо),
3. скачать новый торрент и запустить его у себя в клиенте вместо старого, при этом указать клиенту путь в старую папку, куда и должно происходить скачивание новых серий.
Ваш клиент при этом должен произвести хеширование (проверку) старой папки (если не производит сам - помогите ему сделать это), и будет докачивать только те серии которых у вас ещё нет. Старые серии при этом не удаляются, а продолжают раздаваться!
Eсли вы уже удалили старые серии, то предотвратить повторную закачку старых серий можно, отжав галочку в соответсвующих местах при запуске нового торрента. По возможности, желательно не удалять старые серии как можно дольше, чтобы релизёр не столько продолжал раздавать старые серии, а смог сконцентрироваться на новых.
Совет для тех, кто не хочет ждать перехеширования:
Создайте ещё одну папку рядом с папкой сериала (рядом, а не в ней!!!). Каждую новую серию после удачной загрузки копируйте в новую папку так чтобы ваша основная папка всегда была пуста. Когда ваш новый торрент предложит вам закачать все файлы, выберете только последнюю. Для сидирования же укажите адрес новой папки.
Как закачать отдельный файл из торрента или докачать ранее пропущенные файлы торрента!

Как закачать отдельный файл

1. Открыть торрент
2. Снять галки с тех файлов торрента, которые мы не хотим закачивать. Оставляем только на нужных нам файлах (файле).
3. Нажать О.К.
В клиенте utorrent
Инструкция
1) Открыть торрент

2) Снять галки с тех файлов торрента, которые мы не хотим закачивать:
* либо вручную, снимая с каждого файла галку( скрин №1)
* либо, нажав кнопку "Снять метки (Select None)", сняв сразу со всех файлов(скрин №2)
№1

№2

Оставляем только на нужных нам файлах (файле).

3)Нажать О.К
-- -- --Внимание!!! 16.07. 2016. РАЗДАЧА ОБНОВЛЕНА. ОБНОВИТЕ ТОРЕНТ ФАЙЛ.ПРИЯТНОГО ПРОСМОТРА . --Релиз от: Nikolai.Baranov & PIRATIYA -- -- -- --


Последний раз редактировалось: Враг Нароода (2016-07-16 15:11), всего редактировалось 3 раз(а)
[Профиль] [ЛС]

Russian Mafia

Пол:

Стаж: 1 год 8 месяцев

Сообщений: 4256



Награды: 10 (Подробнее)

Mega Seeder 4 (Количество: 1) Mega Seeder 5 (Количество: 1) Mega Seeder 2 (Количество: 1)
Торрент-статистика

Создавать темы 08-Апр-2016 16:55 (спустя 29 минут)

[Цитировать]

Подождём всех серий, хочется посмотреть =)
[Профиль] [ЛС]
Кто просматривает тему:

Показать сообщения:    

Текущее время: Сегодня 10:47

Часовой пояс: GMT



Вы не можете начинать темы
Вы не можете отвечать на сообщения
Вы не можете редактировать свои сообщения
Вы не можете удалять свои сообщения
Вы не можете голосовать в опросах
Вы не можете прикреплять файлы к сообщениям
Вы не можете скачивать файлы