Цареубийца (1991) BDRip 1080p от MediaClub

 
Автор Сообщение

sergej644 ®

Пол:

Стаж: 4 года 11 месяцев

Сообщений: 6040

Откуда: Soviet Union



Награды: Нет

Торрент-статистика

Создавать темы 28-Янв-2015 18:56

[Цитировать]

Информация о фильме
Оригинальное название: Цареубийца
Год выпуска: 1991
Жанр: Драма, история
Режиссер: Карен Шахназаров
В ролях: Малкольм МакДауэлл, Олег Янковский, Армен Джигарханян, Юрий Шерстнёв, Анжела Пташук, Виктор Сеферов, Ольга Антонова, Дарья Майорова, Евгения Крюкова, Алёна Теремизова, Ольга Борисова, Анастасия Немоляева, Алексей Логунов, Вячеслав Вдовин, Вячеслав Мухов, Дэнис Дмитриев, Надежда Макеко, Дмитрий Куриленко, Наталья Кишова, Юрий Беляев, Альфред Камелевский, Гиви Тохадзе, Вениамин Смехов, Андрей Харыбин
Описание: Фантастика и реальность, прошлое и настоящее тесно сплелись в фильме о трагической гибели последнего русского императора Николая Второго и его семьи. Волей необъяснимых обстоятельств герои картины обретают способность становиться свидетелями и участниками событий, которые являют собой одну из величайших загадок истории...

Страна: СССР, Великобритания
Студия: Courier Studios, Мосфильм, Spectator Entertainment
Продолжительность: 01:42:34
Файл
Качество: BDRip 1080p
Видео: MPEG-4 AVC, 8000 Кбит/с, 1452x1080, 23.976 кадр/с
Аудио #1: Русский (DTS, 6 ch, 1509 Кбит/с)
Аудио #2: Русский (AC3, 6 ch, 448 Кбит/с)
Семпл

Скриншоты

MI

x264 [info]: frame I:744 Avg QP:16.18 size:176430
x264 [info]: frame P:27193 Avg QP:18.64 size: 85789
x264 [info]: frame B:119629 Avg QP:20.92 size: 30848
x264 [info]: consecutive B-frames: 0.9% 0.9% 3.7% 6.9% 14.1% 60.0% 7.1% 2.0% 4.3%
****************************************************************************************************
Общее
Уникальный идентификатор : 238507980930962470588974172197350360803 (0xB36EF75BD58B615B8F598703C29146E3)
Полное имя : D:Mои раздачиCareubyica.1991.BDRip.1080-MediaClub.mkv
Формат : Matroska
Версия формата : Version 4 / Version 2
Размер файла : 7,14 Гбайт
Продолжительность : 1 ч. 42 м.
Общий поток : 9959 Кбит/сек
Название фильма : -=MediaClub-kaspr=-
Дата кодирования : UTC 2014-04-08 04:21:25
Программа кодирования : mkvmerge v6.1.0 ('Old Devil') built on Mar 4 2013 09:10:42
Библиотека кодирования : libebml v1.3.0 + libmatroska v1.4.0
Видео
Идентификатор : 1
Формат : AVC
Формат/Информация : Advanced Video Codec
Профиль формата : High@L4.1
Параметр CABAC формата : Да
Параметр ReFrames формата : 4 кадра
Идентификатор кодека : V_MPEG4/ISO/AVC
Продолжительность : 1 ч. 42 м.
Битрейт : 8000 Кбит/сек
Ширина : 1452 пикселя
Высота : 1080 пикселей
Соотношение сторон : 4:3
Режим частоты кадров : Постоянный
Частота кадров : 23,976 кадра/сек
Цветовое пространство : YUV
Субдискретизация насыщенности : 4:2:0
Битовая глубина : 8 бит
Тип развёртки : Прогрессивная
Бит/(Пиксели*Кадры) : 0.213
Размер потока : 5,59 Гбайт (78%)
Заголовок : -=MediaClub-kaspr=-
Библиотека кодирования : x264 core 142 r2409+42 04be48a tMod [8-bit@4:2:0 X86_64]
Настройки программы : cabac=1 / ref=4 / deblock=1:-3:-3 / analyse=0x3:0x113 / me=umh / subme=11 / psy=1 / fade_compensate=0.00 / psy_rd=1.00:0.20 / mixed_ref=1 / me_range=32 / chroma_me=1 / trellis=2 / 8x8dct=1 / cqm=0 / deadzone=21,11 / fast_pskip=0 / chroma_qp_offset=-3 / threads=12 / lookahead_threads=2 / sliced_threads=0 / nr=0 / decimate=0 / interlaced=0 / bluray_compat=0 / constrained_intra=0 / fgo=0 / bframes=8 / b_pyramid=2 / b_adapt=2 / b_bias=0 / direct=3 / weightb=1 / open_gop=0 / weightp=2 / keyint=240 / keyint_min=23 / scenecut=40 / intra_refresh=0 / rc=2pass / mbtree=0 / bitrate=8000 / ratetol=1.0 / qcomp=0.60 / qpmin=0:0:0 / qpmax=69:69:69 / qpstep=4 / cplxblur=20.0 / qblur=0.5 / ip_ratio=1.40 / pb_ratio=1.30 / aq=2:1.00 / aq-sensitivity=10.00 / aq-factor=1.00:1.00:1.00 / aq2=0 / aq3=0
Default : Да
Forced : Да
Аудио #1
Идентификатор : 2
Формат : DTS
Формат/Информация : Digital Theater Systems
Режим : 16
Параметр Endianness формата : Big
Идентификатор кодека : A_DTS
Продолжительность : 1 ч. 42 м.
Вид битрейта : Постоянный
Битрейт : 1509 Кбит/сек
Каналы : 6 каналов
Расположение каналов : Front: L C R, Side: L R, LFE
Частота : 48,0 КГц
Битовая глубина : 24 бит
Метод сжатия : С потерями
Размер потока : 1,08 Гбайт (15%)
Заголовок : DTS
Язык : Russian
Default : Да
Forced : Да
Аудио #2
Идентификатор : 3
Формат : AC-3
Формат/Информация : Audio Coding 3
Расширение режима : CM (complete main)
Параметр Endianness формата : Big
Идентификатор кодека : A_AC3
Продолжительность : 1 ч. 42 м.
Вид битрейта : Постоянный
Битрейт : 448 Кбит/сек
Каналы : 6 каналов
Расположение каналов : Front: L C R, Side: L R, LFE
Частота : 48,0 КГц
Битовая глубина : 16 бит
Метод сжатия : С потерями
Размер потока : 329 Мбайт (4%)
Заголовок : AC3
Язык : Russian
Default : Нет
Forced : Нет
Меню
00:00:00.000 : en:Chapter 01
00:09:01.540 : en:Chapter 02
00:15:05.905 : en:Chapter 03
00:22:58.377 : en:Chapter 04
00:32:33.952 : en:Chapter 05
00:36:15.172 : en:Chapter 06
00:40:34.431 : en:Chapter 07
00:47:43.861 : en:Chapter 08
00:56:19.376 : en:Chapter 09
01:00:58.655 : en:Chapter 10
01:06:53.009 : en:Chapter 11
01:16:58.613 : en:Chapter 12
01:27:26.241 : en:Chapter 13
01:34:10.645 : en:Chapter 14
01:42:34.690 : en:Chapter 15
--
[Профиль] [ЛС]
Показать сообщения:    

Текущее время: Сегодня 20:40

Часовой пояс: GMT



Вы не можете начинать темы
Вы не можете отвечать на сообщения
Вы не можете редактировать свои сообщения
Вы не можете удалять свои сообщения
Вы не можете голосовать в опросах
Вы не можете прикреплять файлы к сообщениям
Вы не можете скачивать файлы