Царевич Проша (1974) DVDRip-AVC от New-Team

 
Автор Сообщение

sergej644 ®

Пол:

Стаж: 4 года 11 месяцев

Сообщений: 6043

Откуда: Soviet Union



Награды: Нет

Торрент-статистика

Создавать темы 29-Авг-2015 08:28

[Цитировать]

Страна: СССР
Производство: Ленфильм
Жанр: фэнтези, семейный
Год выпуска: 1974
Продолжительность: 01:24:38
Перевод: не требуется
Оригинальная аудиодорожка: русский
Cубтитры: нет
Режиссер: Надежда Кошеверова
В ролях:
Сергей Мартынов, Валерий Золотухин, Татьяна Шестакова, Евгений Тиличеев, Валерий Носик, Татьяна Пельтцер, Александр Бениаминов, Сергей Филиппов, Анатолий Абрамов, Георгий Вицин, Н.Крачковская, Светлана Карпинская, Вера Титова...
Полный список актёров
Описание:
В неком царстве — государстве жил — поживал царь Ермолай, который души не чаял в сыне своем — царевиче Проше. Но случилось так, что приснился однажды царевичу удивительный сон и никак не хотел он тот сон отцу пересказать. Разгневался царь и прогнал любимого сына навеки прочь…- -Исходник: DVD5 R5
Тип релиза: DVDRip-AVC
Контейнер: MKV
Видео: 704->752x400 (1,887:1), 25 fps, H264 ~ 1034 kbps avg, 0.147 bit/pixel
Аудио: 48 kHz, Dolby AC3 2.0, 192 kbps
Раздача от:

MediaInfo

Общее
Полное имя : Tsarevich.Prosha.1974.DVDRip-AVC_by_AVP Studio.mkv
Формат : Matroska
Версия формата : Version 2
Размер файла : 744 Мбайт
Продолжительность : 1 ч. 24 м.
Общий поток : 1228 Кбит/сек
Дата кодирования : UTC 2013-08-06 20:18:15
Программа кодирования : mkvmerge v5.0.1 ('Es ist Sommer') built on Nov 6 2011 16:23:40
Библиотека кодирования : libebml v1.2.2 + libmatroska v1.3.0
Видео
Идентификатор : 1
Формат : AVC
Формат/Информация : Advanced Video Codec
Профиль формата : High@L4.1
Параметр CABAC формата : Да
Параметр ReFrames формата : 11 кадров
Идентификатор кодека : V_MPEG4/ISO/AVC
Продолжительность : 1 ч. 24 м.
Битрейт : 1034 Кбит/сек
Ширина : 704 пикселя
Высота : 400 пикселей
Соотношение сторон : 1,888
Соотношение сторон в оригинале : 1,887
Частота кадров : 25,000 кадров/сек
Цветовое пространство : YUV
Субдискретизация насыщенности : 4:2:0
Битовая глубина : 8 бит
Тип развёртки : Прогрессивная
Бит/(Пиксели*Кадры) : 0.147
Размер потока : 613 Мбайт (82%)
Библиотека кодирования : x264 core 130 r2273 b3065e6
Настройки программы : cabac=1 / ref=11 / deblock=1:-2:-1 / analyse=0x3:0x113 / me=umh / subme=9 / psy=1 / psy_rd=1.00:0.15 / mixed_ref=1 / me_range=32 / chroma_me=1 / trellis=1 / 8x8dct=1 / cqm=0 / deadzone=21,11 / fast_pskip=0 / chroma_qp_offset=-3 / threads=3 / lookahead_threads=1 / sliced_threads=0 / nr=0 / decimate=0 / interlaced=0 / bluray_compat=0 / constrained_intra=0 / bframes=8 / b_pyramid=2 / b_adapt=2 / b_bias=0 / direct=3 / weightb=1 / open_gop=0 / weightp=2 / keyint=250 / keyint_min=25 / scenecut=40 / intra_refresh=0 / rc_lookahead=60 / rc=2pass / mbtree=1 / bitrate=1034 / ratetol=1.0 / qcomp=0.60 / qpmin=0 / qpmax=69 / qpstep=4 / cplxblur=20.0 / qblur=0.5 / ip_ratio=1.40 / aq=1:1.00
Default : Да
Forced : Нет
Аудио
Идентификатор : 2
Формат : AC-3
Формат/Информация : Audio Coding 3
Расширение режима : CM (complete main)
Идентификатор кодека : A_AC3
Продолжительность : 1 ч. 24 м.
Вид битрейта : Постоянный
Битрейт : 192 Кбит/сек
Каналы : 2 канала
Расположение каналов : Front: L R
Частота : 48,0 КГц
Битовая глубина : 16 бит
Метод сжатия : С потерями
Размер потока : 116 Мбайт (16%)
Default : Да
Forced : Нет

Скриншоты

[Профиль] [ЛС]
Кто просматривает тему:

Форум Тема Автор Размер
BBC BBC: Трагическая судьба российских царевен / Russia’s Lost Princesses [серии 1-2 из 2] (Eleanor Scoones) [2014 г., Документальный, история, HDTVRip 720p] skorpionN 2.08 GB
Отечественные мультфильмы Алеша Попович и Тугарин Змей / Добрыня Никитич и Змей Горыныч / Илья Муромец и Соловей Разбойник / Три богатыря и Шамаханская царица / Иван Царевич и Серый Волк (К. Бронзит, И. Максимов, В. Торопчин,... reversefile 7.31 GB
Отечественные мультфильмы Алеша Попович и Тугарин Змей / Добрыня Никитич и Змей Горыныч / Илья Муромец и Соловей Разбойник / Три богатыря и Шамаханская царица / Иван Царевич и Серый Волк / Три богатыря на дальних берегах... reversefile 4.37 GB
Фильмы (HD Rips | 720p, 1080p) Волшебная лампа Аладдина (Борис Рыцарев) [1966, СССР, фэнтези, мелодрама, приключения, Blu-ray disc] TorrentFilm 16.23 GB
Внежанровая документалистика Гудбай, Америка. (Галина Царёва) [2014 г., Документальный, познавательный, SATRip] достали все 1.41 GB
Отечественные мультфильмы Иван Царевич и Серый Волк (Владимир Торопчин) [2011, мультфильм, комедия, приключения, HDRip] reversefile 754 MB
Отечественные мультсериалы Иван Царевич и Серый Волк 2 (2013) DVDRip | Лицензия sergej644 1.37 GB
Отечественные мультфильмы Иван Царевич и Серый Волк 2 (Владимир Торопчин) [2013, мультфильм, приключения, семейный, сказка, BDRip-AVC] reversefile 747 MB
Показать сообщения:    

Текущее время: Сегодня 08:11

Часовой пояс: GMT



Вы не можете начинать темы
Вы не можете отвечать на сообщения
Вы не можете редактировать свои сообщения
Вы не можете удалять свои сообщения
Вы не можете голосовать в опросах
Вы не можете прикреплять файлы к сообщениям
Вы не можете скачивать файлы