Хэппи! / Happy! [2017] (Сезон 1 , Серия 1- 8 из 8) (Брайан Тейлор, Дэвид Петрарка) [Комедия, фэнтези, криминал, триллер, детектив , WEB-DLRip][720p][LostFilm+BaibaKo+ Jaskier+Kubik V Kube+OMSKBIRD+Eng]+[Subs Rus , ENG]

 
Автор Сообщение

Враг Нароода ®

Пол:

Стаж: 3 года 7 месяцев

Сообщений: 230



Награды: 2 (Подробнее)

Mega Seeder 1 (Количество: 1) За внесенный вклад в развитие сайта (Количество: 1)
Торрент-статистика

Создавать темы 21-Дек-2017 10:20

[Цитировать]

-- --Хэппи! / Happy! Сезон 1 , Серия 1-8 из 8 -- --Год выпуска: 2017- 2018
Выпущено: США , SyFy
Жанр: Комедия, фэнтези, криминал, триллер, детектив
Продолжительность: 00:44:00
Сезон:1
Серия:1-8
Количество серий в сезоне:8--Озвучка 1: Профессиональный многоголосый -LostFilm -Русский
Озвучка 2: Профессиональный многоголосый - BaibaKo-Русский
Озвучка 3: Профессиональный многоголосый - Jaskier -Русский
Озвучка 4: Профессиональный многоголосый -Kubik V Kube -Русский
Озвучка 5: Профессиональный многоголосый -OMSKBIRD -Русский
Озвучка 6: Профессиональный многоголосый - Английский - Оригинал
Субтитры: : Русские,Английские --Официальный сайт
--Режиссер: Брайан Тейлор, Дэвид Петрарка--В ролях: Кристофер Мелони, Рен Колли, Александр Джеймисон, Брайс Лоренцо, Майкл Мейзе, Лили Мирожник, Скотт Барик, Бен Коул, Данте Перейра-Олсон, Маттиас Себастьан Гарри-- Ник Сакс, вечно пьяный бывший полицейский, становится наёмным убийцей. Он плывёт по течению в мире случайных смертей, секса и предательства. Когда одно из его дел идёт наперекосяк, нетрезвая жизнь Сакса навсегда меняется с появлением крошечного, вечно положительного, воображаемого голубого крылатого коня..-- --Качество :WEB-DLRip 720p
Формат: MKV
Видео кодек: H264
Видео: 4318Kбит/сек,1280х720(16.9),в 23.976кадр/сек,AVC (High@L3.1)(CABAC/3 Ref Frames)--Аудио Кодек:AC3
Аудио #1:AC3 , 640 Kbps, 48.0 KHz, 6 ch-LostFilm -Русский
Аудио #2:AC3 , 384 Kbps, 48.0 KHz, 6 ch- BaibaKo -Русский
Аудио #3:AC3 , 384 Kbps, 48.0 KHz, 6 ch- Jaskier -Русский
Аудио #4:AC3 , 384Kbps, 48.0 KHz, 6 ch- Kubik V Kube -Русский
Аудио #5:AC3 , 384Kbps, 48.0 KHz, 6 ch- OMSKBIRD -Русский
Аудио #6: AC3, 640 Kbps, 48.0 KHz,6 ch - - English - Оригинал--

Доп. информация:

Звуковая дорожка сделана путем наложения чистого голоса озвучивателей на центральный канал оригинальной дорожки. Качество идентично звуковой дорожке.
--

Список эпизодов сезона


1 сезон 1 серия - Святой Ник - Saint Nick
1 сезон 2 серия - Для чего нужны улыбки - What Smiles Are For
1 сезон 3 серия - Когда Рождество было Рождеством - When Christmas Was Christmas
1 сезон 4 серия - Год лошади - Year of the Horse
1 сезон 5 серия - Белый соус? Острый соус? - White Sauce? Hot Sauce?
1 сезон 6 серия - Склад разбитых детских грез - The Scrapyard of Childish Things
1 сезон 7 серия - Разрушитель миров - Destroyer of Worlds
1 сезон 8 серия - Будущее - это я - I Am the Future
--

MediaInfo сезона

Общее
Уникальный идентификатор : 49956294103638830475259093021324257511 (0x25953B7635972C21EF85D9C0631CA8E7)
Полное имя : E:\Nikolai.Baranov & PIRATIYA\ХЭППИ! (Happy!)\HAPPY!_S01_[LostFilm_BaibaKo_ Jaskier_Kubik V Kube]_DD5.1_N.B_HD_720_Rus_Eng\HAPPY!_S01E01_Н264_DD5.1_N.B_HD_720_4xRus_Eng.mkv
Формат : Matroska
Версия формата : Version 4 / Version 2
Размер файла : 2,07 Гбайт
Продолжительность : 44 м. 15 с.
Общий поток : 6706 Кбит/сек
Название фильма : Happy! S01E01 @ Nikolai.Baranov & PIRATIYA
Дата кодирования : UTC 2017-12-21 07:38:03
Программа кодирования : mkvmerge v19.0.0 ('Brave Captain') 64-bit
Библиотека кодирования : libebml v1.3.5 + libmatroska v1.4.8
Видео
Идентификатор : 1
Формат : AVC
Формат/Информация : Advanced Video Codec
Профиль формата : High@L3.1
Настройки формата : CABAC / 3 Ref Frames
Параметр CABAC формата : Да
Параметр RefFrames формата : 3 кадра
Идентификатор кодека : V_MPEG4/ISO/AVC
Продолжительность : 43 м. 57 с.
Битрейт : 4318 Кбит/сек
Ширина : 1280 пикселей
Высота : 720 пикселей
Соотношение сторон : 16:9
Режим частоты кадров : Постоянный
Частота кадров : 23,976 (24000/1001) кадра/сек
Цветовое пространство : YUV
Субдискретизация насыщенности : 4:2:0
Битовая глубина : 8 бит
Тип развёртки : Прогрессивная
Бит/(Пиксели*Кадры) : 0.195
Размер потока : 1,33 Гбайт (64%)
Заголовок : HAPPY!_S01E01_Н264_DD5.1_N.B_HD_720_4xRus_Eng
Язык : Russian
Default : Нет
Forced : Нет
Аудио #1
Идентификатор : 4
Формат : AC-3
Формат/Информация : Audio Coding 3
Идентификатор кодека : A_AC3
Продолжительность : 43 м. 55 с.
Вид битрейта : Постоянный
Битрейт : 640 Кбит/сек
Каналы : 6 каналов
Расположение каналов : Front: L C R, Side: L R, LFE
Частота : 48,0 КГц
Частота кадров : 31,250 кадров/сек (1536 SPF)
Битовая глубина : 16 бит
Метод сжатия : С потерями
Размер потока : 201 Мбайт (9%)
Заголовок : MVO LostFilm @DD5.1 AC3, 640 Kbps, 48.0 KHz, 6 ch
Язык : Russian
ServiceKind/String : Complete Main
Default : Да
Forced : Нет
Аудио #2
Идентификатор : 5
Формат : AC-3
Формат/Информация : Audio Coding 3
Идентификатор кодека : A_AC3
Продолжительность : 43 м. 57 с.
Вид битрейта : Постоянный
Битрейт : 384 Кбит/сек
Каналы : 6 каналов
Расположение каналов : Front: L C R, Side: L R, LFE
Частота : 48,0 КГц
Частота кадров : 31,250 кадров/сек (1536 SPF)
Битовая глубина : 16 бит
Метод сжатия : С потерями
Размер потока : 121 Мбайт (6%)
Заголовок : MVO BaibaKo @DD5.1 AC3, 384 Kbps, 48.0 KHz, 6 ch
Язык : Russian
ServiceKind/String : Complete Main
Default : Нет
Forced : Нет
Аудио #3
Идентификатор : 6
Формат : AC-3
Формат/Информация : Audio Coding 3
Идентификатор кодека : A_AC3
Продолжительность : 43 м. 57 с.
Вид битрейта : Постоянный
Битрейт : 384 Кбит/сек
Каналы : 6 каналов
Расположение каналов : Front: L C R, Side: L R, LFE
Частота : 48,0 КГц
Частота кадров : 31,250 кадров/сек (1536 SPF)
Битовая глубина : 16 бит
Метод сжатия : С потерями
Размер потока : 121 Мбайт (6%)
Заголовок : MVO Jaskier @DD5.1 AC3, 384 Kbps, 48.0 KHz, 6 ch
Язык : Russian
ServiceKind/String : Complete Main
Default : Нет
Forced : Нет
Аудио #4
Идентификатор : 7
Формат : AC-3
Формат/Информация : Audio Coding 3
Идентификатор кодека : A_AC3
Продолжительность : 43 м. 57 с.
Вид битрейта : Постоянный
Битрейт : 384 Кбит/сек
Каналы : 6 каналов
Расположение каналов : Front: L C R, Side: L R, LFE
Частота : 48,0 КГц
Частота кадров : 31,250 кадров/сек (1536 SPF)
Битовая глубина : 16 бит
Метод сжатия : С потерями
Размер потока : 121 Мбайт (6%)
Заголовок : MVO Kubik V Kube @DD5.1 AC3, 384 Kbps, 48.0 KHz, 6 ch
Язык : Russian
ServiceKind/String : Complete Main
Default : Нет
Forced : Нет
Аудио #5
Идентификатор : 8
Формат : AC-3
Формат/Информация : Audio Coding 3
Идентификатор кодека : A_AC3
Продолжительность : 43 м. 57 с.
Вид битрейта : Постоянный
Битрейт : 640 Кбит/сек
Каналы : 6 каналов
Расположение каналов : Front: L C R, Side: L R, LFE
Частота : 48,0 КГц
Частота кадров : 31,250 кадров/сек (1536 SPF)
Битовая глубина : 16 бит
Метод сжатия : С потерями
Размер потока : 201 Мбайт (9%)
Заголовок : Original@DD5.1 AC3 ,640 Kbps, 48.0 KHz, 6 ch
Язык : English
ServiceKind/String : Complete Main
Default : Нет
Forced : Нет
Текст #1
Идентификатор : 2
Формат : UTF-8
Идентификатор кодека : S_TEXT/UTF8
Идентификатор кодека/Информация : UTF-8 Plain Text
Продолжительность : 43 м. 49 с.
Битрейт : 113 бит/сек
ElementCount : 716
Размер потока : 36,5 Кбайт (0%)
Заголовок : Rus - FOCS
Язык : Russian
Default : Да
Forced : Нет
Текст #2
Идентификатор : 3
Формат : UTF-8
Идентификатор кодека : S_TEXT/UTF8
Идентификатор кодека/Информация : UTF-8 Plain Text
Продолжительность : 43 м. 27 с.
Битрейт : 82 бит/сек
ElementCount : 942
Размер потока : 26,2 Кбайт (0%)
Заголовок : Original - SDH
Язык : English
Default : Нет
Forced : Нет
Меню
00:00:00.000 : en:Глава 01 / en:Глава 01 / en:Глава 01 / en:Глава 01 / en:Глава 01 / en:Глава 01 / en:Глава 01 / en:Глава 01
--

Скриншоты

-- --

Как закачать отдельный файл

1. Открыть торрент
2. Снять галки с тех файлов торрента, которые мы не хотим закачивать. Оставляем только на нужных нам файлах (файле).
3. Нажать О.К.
В клиенте utorrent
Инструкция
1) Открыть торрент

2) Снять галки с тех файлов торрента, которые мы не хотим закачивать:
* либо вручную, снимая с каждого файла галку( скрин №1)
* либо, нажав кнопку "Снять метки (Select None)", сняв сразу со всех файлов(скрин №2)
№1

№2

Оставляем только на нужных нам файлах (файле).

3)Нажать О.К
-- -- --Внимание!!! 06.02. 2018. РАЗДАЧА ОБНОВЛЕНА. ДОБАВЛЕНА 8 СЕРИЯ
ФИНАЛ СЕЗОНА. ОБНОВИТЕ ТОРЕНТ ФАЙЛ. ПРИЯТНОГО ПРОСМОТРА .
--Релиз от: Nikolai.Baranov & PIRATIYA -- -- -- --
[Профиль] [ЛС]
Показать сообщения:    

Текущее время: Сегодня 11:00

Часовой пояс: GMT



Вы не можете начинать темы
Вы не можете отвечать на сообщения
Вы не можете редактировать свои сообщения
Вы не можете удалять свои сообщения
Вы не можете голосовать в опросах
Вы не можете прикреплять файлы к сообщениям
Вы не можете скачивать файлы