Хэнкок / Hancock (2008) BDRip 720p | D, P, A | Unrated

 
Автор Сообщение

Swager ®

Пол:

Стаж: 2 года 2 месяца

Сообщений: 1379



Награды: 4 (Подробнее)

Mega Seeder 2 (Количество: 1) Top Releaser 2 (Количество: 1) За внесенный вклад в развитие сайта (Количество: 1)
Торрент-статистика

Создавать темы 06-Окт-2017 08:29

[Цитировать]

Информация о фильме
Название: Хэнкок
Оригинальное название: Hancock
Год выхода: 2008
Жанр: фантастика, боевик, драма
Режиссер: Питер Берг
В ролях: Уилл Смит, Шарлиз Терон, Джейсон Бейтман, Джей Хед, Эдди Марсан, Дэвид Мэтти, Метрикс Фиттен, Томас Леннон, Джонни Галэки, Хейли Норман
О фильме:
Есть герои, есть супергерои, и есть Хэнкок. Обладание сверхспособностями предполагает ответственность, все знают это — кроме него. За любую задачу он берётся с душой и лучшими намерениями, спасает жизни людей — ценой нечеловеческих разрушений и неисчислимого ущерба. В конце концов, терпение общественности подходит к концу: люди благодарны своему местному герою, но иногда не понимают, чем заслужили такое наказание.
Хэнкок не из тех парней, кого волнует какое-то там общественное мнение, но однажды, после очередного подвига, спасая высокопоставленного пиарщика Рэя, он вдруг понимает, что в некотором смысле он может быть уязвим. С этим трудно смириться, особенно по мнению Мэри, жены Рэя, считающей, что Хэнкок попросту безнадежен.

Страна: США
Студия: Blue Light, Columbia Pictures, Relativity Media, Weed Road Pictures
Продолжительность: 01:42:14
Перевод: Профессиональный (дублированный) Blu-ray CEE + профессиональный (многоголосый, закадровый) Кравец + авторский (одноголосый, закадровый) Ю.Живов + авторский (одноголосый, закадровый) А.Гаврилов
Файл
Формат: Matroska
Качество: BDRip 720p
Видео: AVC, 1280x534 (2.40:1), 23.976 fps, 5 226 Kbps (0.319 bit/pixel)
Аудио #1: AC-3, 48.0 KHz, 6 ch, 448 Kbps, CBR (Russian) - дублированный
Аудио #2: AC-3, 48.0 KHz, 6 ch, 448 Kbps, CBR (Russian) - многоголосый
Аудио #3: AC-3, 48.0 KHz, 6 ch, 448 Kbps, CBR (Russian) - авторский А.Гаврилов
Аудио #4: AC-3, 48.0 KHz, 6 ch, 448 Kbps, CBR (Russian) - авторский Ю.Живов
Аудио #5: AC-3, 48.0 KHz, 6 ch, 448 Kbps, CBR (English) - оригинал

Знаете ли Вы, что...

Первоначально фильм получил рейтинг «R» за то, что герой Смита употребляет алкоголь перед несовершеннолетним и летает в состоянии алкогольного опьянения.
Фильм был показан на военной базе США на Ближнем Востоке за неделю до его премьеры в США - показ был бесплатным для всех американских военнослужащих на этой базе.
Имя главного героя появилось в результате ошибки. В оригинале герой Уилла Смита объясняет, что когда он очнулся в больнице, медсестра сказала ему поставить «Джона Хэнкока» на одной из бумаг. Джон Хэнкок - американский государственный деятель, получивший большую известность за особо крупную подпись, поставленную под Декларацией независимости США. В последствии его имя стало нарицательным и значило «поставить подпись» или «расписаться». В российском официальном переводе была указана совсем другая причина появления этих инициалов.
Сценарий фильма на протяжении десяти лет переходил от одной студии к другой, но никто не решался его воплотить в жизнь. В течение этого времени на главную роль прочили многих известных актеров, среди которых были Джордж Клуни, Бен Аффлек, Мэтт Дэймон и Леонардо ДиКаприо.
После того как студия «Warner Bros.» отказалась от проекта, им занялась «Sony».
В одной из сцен Мэри одета в футболку колледжа «Macalester College». Питер Берг закончил данный колледж.
Кандидатура Дэйва Шапелла рассматривалась на главную роль.
В некоторые кинотеатры копии фильма доставляли либо под названием «Hidden from Earth», либо «Speak Publicly».
Изначально фильм должен был называться «Сегодня вечером он придет». Затем его переименовали в «Джона Хэнкока», а после сократили до «Хэнкок».
Уилл Смит хотел, чтобы Айшвария Рай сыграла Мэри, но ей пришлось отказаться от роли из-за занятости на других проектах.
Шарлиз Терон и Джейсон Бейтман сыграли супругов в третьем сезоне «Замедленного развития» (2003).
Винсент Нго написал сценарий фильма в 1996 году. Почти десять лет спустя Винс Джиллигэн переписал сценарий, Джонатан Мостоу должен был поставить фильм, а премьера - состояться в 2007 году.
Когда Джонатан Мостоу покинул проект в мае 2006 года, режиссером назначили Габриэле Муччино, который в то время занимался монтажом «В погоне за счастьем» (2006), где также сыграл Уилл Смит. «Хэнкок» должен был стать их следующим совместным проектом, однако Смит решил сначала сделать «Я - легенда» (2007). В октябре 2006 года Габриэле покинул проект из-за творческих разногласий.
На пост режиссера также рассматривались Майкл Манн и Тони Скотт.
В фильме содержится 525 кадров со спецэффектами.
В сцене, где Рэй впервые объясняет свое видение PR-кампании, членов совета директоров сыграли различные голливудские продюсеры, среди которых Акива Голдсман и Майкл Манн.
Питер Берг, режиссер фильма, сыграл одного из врачей, которые борются за жизнь Мэри.

MediaInfo

Формат : Matroska
Версия формата : Version 2
Размер файла : 5,33 Гбайт
Продолжительность : 1 ч. 42 м.
Общий поток : 7466 Кбит/сек
Название фильма : Хэнкок / Hancock (2008) | Unrated
Дата кодирования : UTC 2017-10-04 14:28:52
Программа кодирования : mkvmerge v5.3.0 ('I could have danced') built on Feb 9 2012 10:38:07
Библиотека кодирования : libebml v1.2.3 + libmatroska v1.3.0
Attachments : poster 3.png
Видео
Идентификатор : 1
Формат : AVC
Формат/Информация : Advanced Video Codec
Профиль формата : High@L4.1
Параметр CABAC формата : Да
Параметр ReFrames формата : 12 кадров
Идентификатор кодека : V_MPEG4/ISO/AVC
Продолжительность : 1 ч. 42 м.
Битрейт : 5226 Кбит/сек
Ширина : 1280 пикселей
Высота : 534 пикселя
Соотношение сторон : 2,40:1
Режим частоты кадров : Постоянный
Частота кадров : 23,976 (24000/1001) кадра/сек
Цветовое пространство : YUV
Субдискретизация насыщенности : 4:2:0
Битовая глубина : 8 бит
Тип развёртки : Прогрессивная
Бит/(Пиксели*Кадры) : 0.319
Размер потока : 3,63 Гбайт (68%)
Библиотека кодирования : x264 core 146 r2538 121396c
Настройки программы : cabac=1 / ref=12 / deblock=1:-3:-3 / analyse=0x3:0x133 / me=umh / subme=11 / psy=1 / psy_rd=1.00:0.00 / mixed_ref=1 / me_range=32 / chroma_me=1 / trellis=2 / 8x8dct=1 / cqm=0 / deadzone=21,11 / fast_pskip=0 / chroma_qp_offset=-2 / threads=12 / lookahead_threads=3 / sliced_threads=0 / nr=0 / decimate=0 / interlaced=0 / bluray_compat=0 / constrained_intra=0 / bframes=11 / b_pyramid=2 / b_adapt=2 / b_bias=0 / direct=3 / weightb=1 / open_gop=0 / weightp=2 / keyint=240 / keyint_min=23 / scenecut=40 / intra_refresh=0 / rc=2pass / mbtree=0 / bitrate=5226 / ratetol=1.0 / qcomp=0.60 / qpmin=0 / qpmax=69 / qpstep=4 / cplxblur=20.0 / qblur=0.5 / ip_ratio=1.40 / pb_ratio=1.30 / aq=3:0.90
Язык : English
Default : Да
Forced : Нет
Аудио #1
Идентификатор : 2
Формат : AC-3
Формат/Информация : Audio Coding 3
Расширение режима : CM (complete main)
Параметр Endianness формата : Big
Идентификатор кодека : A_AC3
Продолжительность : 1 ч. 42 м.
Вид битрейта : Постоянный
Битрейт : 448 Кбит/сек
Каналы : 6 каналов
Расположение каналов : Front: L C R, Side: L R, LFE
Частота : 48,0 КГц
Частота кадров : 31,250 кадров/сек (1536 spf)
Битовая глубина : 16 бит
Метод сжатия : С потерями
Размер потока : 328 Мбайт (6%)
Заголовок : Дубляж
Язык : Russian
Default : Да
Forced : Нет
Аудио #2
Идентификатор : 3
Формат : AC-3
Формат/Информация : Audio Coding 3
Расширение режима : CM (complete main)
Параметр Endianness формата : Big
Идентификатор кодека : A_AC3
Продолжительность : 1 ч. 42 м.
Вид битрейта : Постоянный
Битрейт : 448 Кбит/сек
Каналы : 6 каналов
Расположение каналов : Front: L C R, Side: L R, LFE
Частота : 48,0 КГц
Частота кадров : 31,250 кадров/сек (1536 spf)
Битовая глубина : 16 бит
Метод сжатия : С потерями
Размер потока : 328 Мбайт (6%)
Заголовок : Гаврилов
Язык : Russian
Default : Нет
Forced : Нет
Аудио #3
Идентификатор : 4
Формат : AC-3
Формат/Информация : Audio Coding 3
Расширение режима : CM (complete main)
Параметр Endianness формата : Big
Идентификатор кодека : A_AC3
Продолжительность : 1 ч. 42 м.
Вид битрейта : Постоянный
Битрейт : 448 Кбит/сек
Каналы : 6 каналов
Расположение каналов : Front: L C R, Side: L R, LFE
Частота : 48,0 КГц
Частота кадров : 31,250 кадров/сек (1536 spf)
Битовая глубина : 16 бит
Метод сжатия : С потерями
Размер потока : 328 Мбайт (6%)
Заголовок : Многоголосый
Язык : Russian
Default : Нет
Forced : Нет
Аудио #4
Идентификатор : 5
Формат : AC-3
Формат/Информация : Audio Coding 3
Расширение режима : CM (complete main)
Параметр Endianness формата : Big
Идентификатор кодека : A_AC3
Продолжительность : 1 ч. 42 м.
Вид битрейта : Постоянный
Битрейт : 448 Кбит/сек
Каналы : 6 каналов
Расположение каналов : Front: L C R, Side: L R, LFE
Частота : 48,0 КГц
Частота кадров : 31,250 кадров/сек (1536 spf)
Битовая глубина : 16 бит
Метод сжатия : С потерями
Размер потока : 328 Мбайт (6%)
Заголовок : Живов
Язык : Russian
Default : Нет
Forced : Нет
Аудио #5
Идентификатор : 6
Формат : AC-3
Формат/Информация : Audio Coding 3
Расширение режима : CM (complete main)
Параметр Endianness формата : Big
Идентификатор кодека : A_AC3
Продолжительность : 1 ч. 42 м.
Вид битрейта : Постоянный
Битрейт : 448 Кбит/сек
Каналы : 6 каналов
Расположение каналов : Front: L C R, Side: L R, LFE
Частота : 48,0 КГц
Частота кадров : 31,250 кадров/сек (1536 spf)
Битовая глубина : 16 бит
Метод сжатия : С потерями
Размер потока : 328 Мбайт (6%)
Заголовок : Eng
Язык : English
Default : Нет
Forced : Нет
Текст #1
Идентификатор : 7
Формат : UTF-8
Идентификатор кодека : S_TEXT/UTF8
Идентификатор кодека/Информация : UTF-8 Plain Text
Язык : Russian
Default : Нет
Forced : Нет
Текст #2
Идентификатор : 8
Формат : UTF-8
Идентификатор кодека : S_TEXT/UTF8
Идентификатор кодека/Информация : UTF-8 Plain Text
Заголовок : Forced
Язык : Russian
Default : Нет
Forced : Нет
Текст #3
Идентификатор : 9
Формат : UTF-8
Идентификатор кодека : S_TEXT/UTF8
Идентификатор кодека/Информация : UTF-8 Plain Text
Язык : English
Default : Нет
Forced : Нет
Текст #4
Идентификатор : 10
Формат : UTF-8
Идентификатор кодека : S_TEXT/UTF8
Идентификатор кодека/Информация : UTF-8 Plain Text
Язык : Ukrainian
Default : Нет
Forced : Нет
Меню
00:00:00.000 : :Chapter 01
00:05:00.000 : :Chapter 02
00:10:00.000 : :Chapter 03
00:15:00.000 : :Chapter 04
00:20:00.000 : :Chapter 05
00:25:00.000 : :Chapter 06
00:30:00.000 : :Chapter 07
00:35:00.000 : :Chapter 08
00:40:00.000 : :Chapter 09
00:45:00.000 : :Chapter 10
00:50:00.000 : :Chapter 11
00:55:00.000 : :Chapter 12
01:00:00.000 : :Chapter 13
01:05:00.000 : :Chapter 14
01:10:00.000 : :Chapter 15
01:15:00.000 : :Chapter 16
01:20:00.000 : :Chapter 17
01:25:00.000 : :Chapter 18
01:30:00.000 : :Chapter 19
01:35:00.000 : :Chapter 20
01:40:00.000 : :Chapter 21
Скриншоты:

Релиз:
[Профиль] [ЛС]
Показать сообщения:    

Текущее время: Сегодня 05:09

Часовой пояс: GMT



Вы не можете начинать темы
Вы не можете отвечать на сообщения
Вы не можете редактировать свои сообщения
Вы не можете удалять свои сообщения
Вы не можете голосовать в опросах
Вы не можете прикреплять файлы к сообщениям
Вы не можете скачивать файлы