Хэйвен / Тайны Хейвена / Haven [05х01-05 из 13] (2014) WEB-DLRip от CasStudio | Кубик в Кубе

 
Автор Сообщение

Белочка ®

Пол:

Стаж: 5 лет 1 месяц

Сообщений: 2089



Награды: 1 (Подробнее)

Girls (Количество: 1)
Торрент-статистика

Создавать темы 22-Окт-2014 21:47

[Цитировать]

Информация о фильме
Название: Хэйвен / Тайны Хейвена
Оригинальное название: Haven
Год выхода: 2014
Жанр: Мистический триллер, криминальный детектив, ужасы
Режиссер: Т.У. Пикок, Ли Роуз, Тим Соутэм, Фред Гербер, Роберт Либерман, Рейчел Тэлалей, Шоун Пиллер
В ролях: Эмили Роуз, Лукас Брайант, Эрик Бальфур, Ричард Донат, Джон Дансуорт, Николас Кэмпбелл, Адам Коуплэнд, Бри Уильямсон, Глен Лефчак, Кейт Келтон, Стивен МакХэтти, Кристофер Шор, Винесса Антуан, Морис Дин Винт
О фильме:
За основу взят сюжет из книги Стивена Кинга "The Colorado Kid" ("Дитя Колорадо"). В маленький город Хейвен приезжает агент ФБР Одри Паркер, чтобы расследовать смерть бывшего преступника. Из-за своего природного любопытства она попала в эпицентр этого необычного анклава, который, оказывается, издавна служил пристанищем для людей со сверхспособностями. Среди местных жителей города полицейский Натан Вурно, который стал напарником Одри, и загадочный и обаятельный мастер на все руки Дюк Крокер.

Содержание

01. Не вижу зла / See No Evil
02. Ничего никому не скажу / Speak No Evil

Дополнительно

Озвучка: Кубик в Кубе
Рип, работа со звуком: ЛП
Перевод: Анастасия Кисиленко (Medveditsa)
При поддержке: HDOUT

MI

Общее
Полное имя : Haven Season 5 CasStudio.TVHaven.s05e01.rus.eng.CasStudio.TV.avi
Формат : AVI
Формат/Информация : Audio Video Interleave
Размер файла : 842 Мбайт
Продолжительность : 42 м.
Общий поток : 2781 Кбит/сек
Программа кодирования : VirtualDubMod 1.5.10.2 (build 2540/release)
Библиотека кодирования : VirtualDubMod build 2540/release
Видео
Идентификатор : 0
Формат : MPEG-4 Visual
Профиль формата : Advanced Simple@L5
Параметр BVOP формата : 1
Параметр QPel формата : Нет
Параметр GMC формата : Без точки перехода
Параметр матрицы формата : Default (MPEG)
Идентификатор кодека : XVID
Идентификатор кодека/Подсказка : XviD
Продолжительность : 42 м.
Битрейт : 1999 Кбит/сек
Ширина : 720 пикселей
Высота : 400 пикселей
Соотношение сторон : 16:9
Частота кадров : 23,976 кадра/сек
Цветовое пространство : YUV
Субдискретизация насыщенности : 4:2:0
Битовая глубина : 8 бит
Тип развёртки : Прогрессивная
Метод сжатия : С потерями
Бит/(Пиксели*Кадры) : 0.290
Размер потока : 605 Мбайт (72%)
Библиотека кодирования : XviD 65
Аудио #1
Идентификатор : 1
Формат : AC-3
Формат/Информация : Audio Coding 3
Расширение режима : CM (complete main)
Параметр Endianness формата : Big
Идентификатор кодека : 2000
Продолжительность : 42 м.
Вид битрейта : Постоянный
Битрейт : 384 Кбит/сек
Каналы : 6 каналов
Расположение каналов : Front: L C R, Side: L R, LFE
Частота : 48,0 КГц
Битовая глубина : 16 бит
Метод сжатия : С потерями
Размер потока : 116 Мбайт (14%)
Выравнивание : Разделение по промежуткам
Продолжительность промежутка : 42 мс. (1,00 видеокадр)
Время предзагрузки промежутка : 500 мс.
Аудио #2
Идентификатор : 2
Формат : AC-3
Формат/Информация : Audio Coding 3
Расширение режима : CM (complete main)
Параметр Endianness формата : Big
Идентификатор кодека : 2000
Продолжительность : 42 м.
Вид битрейта : Постоянный
Битрейт : 384 Кбит/сек
Каналы : 6 каналов
Расположение каналов : Front: L C R, Side: L R, LFE
Частота : 48,0 КГц
Битовая глубина : 16 бит
Метод сжатия : С потерями
Размер потока : 116 Мбайт (14%)
Выравнивание : Разделение по промежуткам
Продолжительность промежутка : 42 мс. (1,00 видеокадр)
Время предзагрузки промежутка : 500 мс.

Страна: Канада
Продолжительность: ~ 00:43:00
Перевод: Профессиональный двухголосый закадровый, Кубик в Кубе
Файл
Кодек: XviD
Качество: WEB-DLRip
Видео: ~ 2000 Кбит/с, 720x400
Звук: Русский, английский (АС3, 6 ch, 384 Кбит/с)
Субтитры: Русские, английские

Скриншоты

Релиз от:
[Профиль] [ЛС]
Показать сообщения:    

Текущее время: Сегодня 21:00

Часовой пояс: GMT



Вы не можете начинать темы
Вы не можете отвечать на сообщения
Вы не можете редактировать свои сообщения
Вы не можете удалять свои сообщения
Вы не можете голосовать в опросах
Вы не можете прикреплять файлы к сообщениям
Вы не можете скачивать файлы