Хью Хефнер: плейбой, активист и бунтарь / Hugh Hefner: Playboy, Activist and Rebel (Бриджитт Берман / Brigitte Berman) [2010, документальный, биографический, HDTV 1080i] MVO (Amedia)

 
Автор Сообщение

TorrentFilm ®

Пол:

Стаж: 1 год 11 месяцев

Сообщений: 7741



Награды: Нет

Торрент-статистика

Создавать темы 12-Янв-2015 00:01

[Цитировать]

Хью Хефнер: плейбой, активист и бунтарь
Hugh Hefner: Playboy, Activist and Rebel- Год выпуска: 2010
Страна: Канада
Студия: Metaphor Films
Жанр: документальный, биографический
Продолжительность: 02:04:15
Перевод: Профессиональный (многоголосый закадровый)
Доп. инфо о переводе: Amedia
Русские субтитры: нет
Режиссер: Бриджитт Берман / Brigitte BermanВ ролях: Хью Хефнер, Джордж Лукас, Джоан Баэз, Тони Беннетт, Пэт Бун, Джим Браун, Джеймс Каан, Тони Кёртис, Пит Сигер, Джин Симмонс, Шэннон Твид, архивные съемки: Гор Видал, Луи Армстронг, Уоррен Битти, Элла Фицджеральд, Каунт Бейси, Рэй Бредбери, Ленни Брюс, Сэмми Дэвис-мл., Диззи Гиллеспи, Рональд Рейган, Дороти Страттен
Описание: Фильм рассказывает историю очень яркой и открытой жизни Хью Хефнера, который является основателем империи Плейбоя. Фильм достоверно и с моментами юмора раскрывает жесточайшие сражения Хефнера с органами государственного управления, религиозными правыми и воюющими феминистками. Подборка уникальных материалов и интересных интервью со знаменитостями 20 столетия дарят зрителям уникальный шанс больше узнать о Хью Хефнер, то какой особенный это был человек, и какое противоречивое окружение он имел.
Доп. информация: Amedia Premium HD.
Награды: номинация на Гран-при жюри Miami Film Festival 2010 в разделе "Документальных фильмов"; номинация на лучший документальный фильм Image Awards 2011.

Тип релиза: HDTV 1080i
Контейнер: TS
Видео: AVC (H.264), 1920x1080 (16:9), 25 fps, ~6500 kbps avg
Аудио: MPEG Audio 2, 2 ch, 48 kHz, ~192.00 kbps avg - русский
Аудио 2: MPEG Audio 2, 2 ch, 48 kHz, ~192.00 kbps avg - английский

MediaInfo

ОбщееИдентификатор : 27437 (0x6B2D)Полное имя : E:\My Torrents 2\[apreder]Hugh_Hefner_Playboy_Activist_and_Rebel(2010)DVB.TSФормат : MPEG-TSРазмер файла : 6,51 ГбайтПродолжительность : 2 ч. 4 м.Режим общего битрейта : ПеременныйОбщий поток : 7505 Кбит/сек
ВидеоИдентификатор : 70 (0x46)Идентификатор меню : 1 (0x1)Формат : AVCФормат/Информация : Advanced Video CodecПрофиль формата : High@L4.0Параметр CABAC формата : ДаПараметр ReFrames формата : 4 кадраИдентификатор кодека : 27Продолжительность : 2 ч. 4 м.Битрейт : 6746 Кбит/секШирина : 1920 пикселейВысота : 1080 пикселейСоотношение сторон : 16:9Частота кадров : 25,000 кадров/секСтандарт вещания : ComponentЦветовое пространство : YUVСубдискретизация насыщенности : 4:2:0Битовая глубина : 8 битТип развёртки : MBAFFПорядок развёртки : Верхнее поле первоеБит/(Пиксели*Кадры) : 0.130Размер потока : 5,86 Гбайт (90%)Основные цвета : BT.709Характеристики трансфера : BT.709Коэффициенты матрицы : BT.709colour_range : Limited
Аудио #1Идентификатор : 68 (0x44)Идентификатор меню : 1 (0x1)Формат : MPEG AudioВерсия формата : Version 1Профиль формата : Layer 2Идентификатор кодека : 3Продолжительность : 2 ч. 4 м.Вид битрейта : ПостоянныйБитрейт : 192 Кбит/секКаналы : 2 каналаЧастота : 48,0 КГцМетод сжатия : С потерямиЗадержка видео : -9 мс.Размер потока : 171 Мбайт (3%)Язык : English
Аудио #2Идентификатор : 69 (0x45)Идентификатор меню : 1 (0x1)Формат : MPEG AudioВерсия формата : Version 1Профиль формата : Layer 2Идентификатор кодека : 3Продолжительность : 2 ч. 4 м.Вид битрейта : ПостоянныйБитрейт : 192 Кбит/секКаналы : 2 каналаЧастота : 48,0 КГцМетод сжатия : С потерямиЗадержка видео : -9 мс.Размер потока : 171 Мбайт (3%)Язык : Russian

Скриншоты


Резервные скриншоты


-[2'046]
[Профиль] [ЛС]
Кто просматривает тему:

Показать сообщения:    

Текущее время: Сегодня 05:00

Часовой пояс: GMT



Вы не можете начинать темы
Вы не можете отвечать на сообщения
Вы не можете редактировать свои сообщения
Вы не можете удалять свои сообщения
Вы не можете голосовать в опросах
Вы не можете прикреплять файлы к сообщениям
Вы не можете скачивать файлы