Хулиган / Hellion (2014) BDRip 1080p | Лицезия

 
Автор Сообщение

BOSS ®

Пол:

Стаж: 2 года 1 месяц

Сообщений: 3744

Откуда: ODESSA



Награды: 20 (Подробнее)

Mega Releaser 1 (Количество: 1) Top Keeper 4 (Количество: 1) Top Seeder 2 (Количество: 1)
Торрент-статистика

Создавать темы 09-Авг-2015 09:06

[Цитировать]

Информация о фильме
Название: Хулиган
Оригинальное название: Hellion
Год выхода: 2014
Жанр: Драма, триллер
Режиссер: Кэт Кэндлер
В ролях: Аарон Пол, Джульетт Льюис, Джош Уиггинс, Далтон Саттон, Камрон Оуэнс, Дилан Коул, Джонни Марс, Уолт Робертс, Аннали Джеффрис
О фильме:
Отца двух мальчиков Холлиса лишают родительских прав, забрав младшего сына. Это становится точкой невозврата для старшего сына Джейкоба, увлекающегося гонками. Восставший против отца, страстно одержимый только двумя вещами: выиграть чемпионат по мотокроссу и вернуть младшего брата домой, Джейкоб не остановится ни перед чем… Совершая одно преступление за другим, отчаянный 13-летний трудный подросток, мастерски уходит от погони. Отцу в одиночку предстоит сразиться с системой, вернуть обоих сыновей и повернуть жизнь в прежнее русло.

Выпущено: США / Across Town Productions, IFC Films, Arts+Labor, Silver Sail Entertainment
Продолжительность: 01:39:01
Перевод: Дублированое [Лицензия]
Файл
Формат: MKV
Качество: BDRip 1080p
Видео: MPEG-4 AVC, 16000 Кбит/с, 1920x1080
Звук: Russian: AC3, 448 Kb/s (6 ch) / English: DTS, 1510 Kb/s (6 ch)
Семпл

MI

Общее
Уникальный идентификатор : 218069820064428036164523544804931216618 (0xA40EB83A84BE1BA19681384EA07D24EA)
Полное имя : C:UsersAlexeyDownloadsхулиганHellion.2014.D.BDRip.1080p.Uniongang.mkv.mkv
Формат : Matroska
Версия формата : Version 4 / Version 2
Размер файла : 12,4 Гбайт
Продолжительность : 1 ч. 39 м.
Общий поток : 17,9 Мбит/сек
Название фильма : [uniongang.tv]
Дата кодирования : UTC 2015-08-07 15:14:11
Программа кодирования : mkvmerge v6.1.0 ('Old Devil') built on Mar 4 2013 09:10:42
Библиотека кодирования : libebml v1.3.0 + libmatroska v1.4.0
Видео
Идентификатор : 1
Формат : AVC
Формат/Информация : Advanced Video Codec
Профиль формата : High@L4.1
Параметр CABAC формата : Да
Параметр ReFrames формата : 4 кадра
Идентификатор кодека : V_MPEG4/ISO/AVC
Продолжительность : 1 ч. 39 м.
Битрейт : 16,0 Мбит/сек
Ширина : 1920 пикселей
Высота : 1080 пикселей
Соотношение сторон : 16:9
Режим частоты кадров : Постоянный
Частота кадров : 23,976 кадра/сек
Цветовое пространство : YUV
Субдискретизация насыщенности : 4:2:0
Битовая глубина : 8 бит
Тип развёртки : Прогрессивная
Бит/(Пиксели*Кадры) : 0.322
Размер потока : 10,8 Гбайт (87%)
Библиотека кодирования : x264 core 142 r2479 dd79a61
Настройки программы : cabac=1 / ref=4 / deblock=1:-3:-3 / analyse=0x3:0x133 / me=umh / subme=11 / psy=1 / psy_rd=1.05:0.10 / mixed_ref=1 / me_range=64 / chroma_me=1 / trellis=2 / 8x8dct=1 / cqm=0 / deadzone=21,11 / fast_pskip=0 / chroma_qp_offset=-3 / threads=12 / lookahead_threads=3 / sliced_threads=0 / nr=0 / decimate=1 / interlaced=0 / bluray_compat=0 / constrained_intra=0 / bframes=10 / b_pyramid=2 / b_adapt=2 / b_bias=0 / direct=3 / weightb=1 / open_gop=0 / weightp=2 / keyint=250 / keyint_min=23 / scenecut=40 / intra_refresh=0 / rc_lookahead=80 / rc=2pass / mbtree=1 / bitrate=16000 / ratetol=1.0 / qcomp=0.75 / qpmin=0 / qpmax=69 / qpstep=4 / cplxblur=20.0 / qblur=0.5 / vbv_maxrate=38000 / vbv_bufsize=30000 / nal_hrd=none / filler=0 / ip_ratio=1.40 / aq=1:0.65
Язык : English
Default : Да
Forced : Нет
Аудио #1
Идентификатор : 2
Формат : AC-3
Формат/Информация : Audio Coding 3
Расширение режима : CM (complete main)
Параметр Endianness формата : Big
Идентификатор кодека : A_AC3
Продолжительность : 1 ч. 39 м.
Вид битрейта : Постоянный
Битрейт : 448 Кбит/сек
Каналы : 6 каналов
Расположение каналов : Front: L C R, Side: L R, LFE
Частота : 48,0 КГц
Битовая глубина : 16 бит
Метод сжатия : С потерями
Задержка видео : 24 мс.
Размер потока : 317 Мбайт (2%)
Язык : Russian
Default : Да
Forced : Да
Аудио #2
Идентификатор : 3
Формат : DTS
Формат/Информация : Digital Theater Systems
Режим : 16
Параметр Endianness формата : Big
Идентификатор кодека : A_DTS
Продолжительность : 1 ч. 39 м.
Вид битрейта : Постоянный
Битрейт : 1509 Кбит/сек
Каналы : 6 каналов
Расположение каналов : Front: L C R, Side: L R, LFE
Частота : 48,0 КГц
Битовая глубина : 16 бит
Метод сжатия : С потерями
Размер потока : 1,04 Гбайт (8%)
Заголовок : English
Язык : English
Default : Нет
Forced : Нет
Меню
00:00:00.000 : en:00:00:00.000
00:11:53.046 : en:00:11:53.046
00:20:18.467 : en:00:20:18.467
00:29:59.589 : en:00:29:59.589
00:39:05.802 : en:00:39:05.802
00:46:51.058 : en:00:46:51.058
00:52:05.998 : en:00:52:05.998
01:02:08.058 : en:01:02:08.058
01:05:58.413 : en:01:05:58.413
01:17:35.985 : en:01:17:35.985
01:25:59.863 : en:01:25:59.863
01:33:51.626 : en:01:33:51.626
[Профиль] [ЛС]
Показать сообщения:    

Текущее время: Сегодня 15:41

Часовой пояс: GMT



Вы не можете начинать темы
Вы не можете отвечать на сообщения
Вы не можете редактировать свои сообщения
Вы не можете удалять свои сообщения
Вы не можете голосовать в опросах
Вы не можете прикреплять файлы к сообщениям
Вы не можете скачивать файлы