Хулиганы 3 / Green Street 3: Never Back Down (2013) HDRip [576p] iPad

 
Автор Сообщение

sergej644 ®

Пол:

Стаж: 4 года 11 месяцев

Сообщений: 6035

Откуда: Soviet Union



Награды: Нет

Торрент-статистика

Создавать темы 05-Дек-2014 17:38

[Цитировать]

-Хулиганы 3 / Green Street 3: Never Back Down (2013) HDRip [576p] iPad
-
-Год выпуска: 2013
Производство: Великобритания
Жанр: Боевик, драма
Продолжительность: 01:33:17
Перевод: Многоголосый закадровый (online movies)
Оригинальная аудиодорожка: Есть
Cубтитры: Английские
Режиссер: Джеймс Нанн
Сценарий: Ронни Томпсон
Продюсер: Джеймс Харрис, Марк Лэйн, Никола Картрайт
Оператор: Джонатан Айлз
Композитор: Пол Арнольд, Эндрю Барнабас
Художник: Гарет Томас, Мэтт Кларк, Эллиотт Дэй
Монтаж: Томми Боулдинг
Актеры: Скотт Эдкинс, Кейси Барнфилд, Джои Анса, Джек Дулан, Джош Майерс, Марк Уингетт, Роберта Тейлор, Спенсер Уидлинг, Джордж Руссо, Кристи Билли Кук
Мировая премьера: 21 октября 2013

Описание: Вся жизнь Дэнни Харви связана с драками, с борьбой на спортивных площадках, на футбольном поле. Позднее он оказывается лидером группы фанатов с заманчивым названием «Элита Зеленой Улицы». Но Дэнни надоедает насилие на футбольных баталиях, и он решает сменить свое амплуа и заняться смешенными единоборствами. Встав во главе тренировочного бойцовского зала, очень почитаемого в Великобритании, он, тем не менее, живо интересуется достижениями и успехами своего родного, когда-то, футбольного клуба «Вест Хэм». У Дэнни есть младший брат Джоуи, который обитает в недрах «Элиты Зеленой Улицы». Получив навыки от своего брата, Джоуи сильно преуспевает в ММА. По этому поводу, у Дэнни есть твердая уверенность в том, что Джоуи пора заканчивать заниматься ерундой, а нужно сосредоточиться на переходе на другой уровень, профессиональный. Он рекомендует брату получить лицензию и заняться делом серьезно. Но, случается беда… Очередная фанатская разборка, и… Джоуи убит. Что предпримет Дэнни, как он поведет себя в этой ситуации?-Качество исходника: BDRip 1080p
Качество: HDRip
Тип: SD (576p)
Контейнер: M4V
Видео: H.264, 1024x432, 2.40:1, 2 200 Kbps, 23.976 fps
Аудио 1: Русский/Многоголосый закадровый , AAC / 2.0 / 157 Kbps / 48.0 KHz
Аудио 2: Английский/Оригинальная дорожка , AAC / 2.0 / 157 Kbps / 48.0 KHz
Язык субтитров: Английский
Вид субтитров: Вшитые (полные, отключаемые)-

iTunes Meta Tags

Sort Name: Хулиганы 3
XID: Apple:vendor_id:2013-730990
contentID: 730990
Screenwriters: Ронни Томпсон
Producers: Джеймс Харрис, Марк Лэйн, Ронни Томпсон
Director: Джеймс Нанн
Cast: Скотт Эдкинс, Марк Уингетт, Роберта Тейлор, Джордж Руссо, Билли Кук, Маркус Байрон Китинг, Крис Ховард, Майк Фьюри, Майкл Т. Росс, Алистер МакНаб
Rating: 11
Long Description: Дэнни Харви дрался всю свою жизнь: сначала на спортплощадке, потом на футбольном поле, а впоследствии - во главе фанатской группировки под названием "Элита Зелёной Улицы".
Четырнадцать лет назад Дэнни отошёл от футбольного насилия и направил своё умение драться в другое русло - в мир смешанных единоборств. Он управляет тренировочным залом для бойцов, одним из самых почитаемых в Великобритании. Несмотря на то, что Дэнни находится вдалеке от своего любимого ФК "Вест Хэм", он неизменный и преданный "хэммер" и неустанно следит за достижениями своей команды.
Джоуи, младший брат Дэнни, многие годы тусуется с "Элитой Зелёной Улицы". Обучившись у Дэнни, Джоуи тоже преуспел в ММА, и его старший брат неоднократно советовал ему сосредоточиться на переходе в профессионалы и стать кем-то, вместо того, чтобы заниматься ерундой в группировке. Джоуи последовал его совету и получил проф. лицензию.
Но однажды Джоуи убивают в одной из фанатских разборок...
Description: Дэнни Харви дрался всю свою жизнь: сначала на спортплощадке, потом на футбольном поле, а впоследствии - во главе фанатской группировки под названием "Элита Зелёной Улицы".
Release Date: 2013-10-21T08:00:00Z
Artist: Джеймс Нанн
Name: Хулиганы 3

MediaInfo

General
Complete name                            : /Users/imac/HandBrake/Green.Street.3.Never.Back.Down.(SD).(pk).m4v
Format                                   : MPEG-4
Codec ID                                 : M4V
File size                                : 1.64 GiB
Duration                                 : 1h 33mn
Overall bit rate mode                    : Variable
Overall bit rate                         : 2 520 Kbps
Movie name                               : Хулиганы 3
Performer                                : Джеймс Нанн
Recorded date                            : UTC 2013-10-21 08:00:00
Encoded date                             : UTC 2014-12-05 10:14:50
Tagged date                              : UTC 2014-12-05 10:15:10
Cover                                    : Yes
sonm                                     : Хулиганы 3
desc                                     : Дэнни Харви дрался всю свою жизнь: сначала на спортплощадке, потом на футбольном поле, а впоследствии - во главе фанатской группировки под названием "Элита Зелёной Улицы".
ldes                                     : Дэнни Харви дрался всю свою жизнь: сначала на спортплощадке, потом на футбольном поле, а впоследствии - во главе фанатской группировки под названием "Элита Зелёной Улицы". / Четырнадцать лет назад Дэнни отошёл от футбольного насилия и направил своё умение драться в другое русло - в мир смешанных единоборств. Он управляет тренировочным залом для бойцов, одним из самых почитаемых в Великобритании. Несмотря на то, что Дэнни находится вдалеке от своего любимого ФК "Вест Хэм", он неизменный и преданный "хэммер" и неустанно следит за достижениями своей команды. /Джоуи, младший брат Дэнни, многие годы тусуется с "Элитой Зелёной Улицы". Обучившись у Дэнни, Джоуи тоже преуспел в ММА, и его старший брат неоднократно советовал ему сосредоточиться на переходе в профессионалы и стать кем-то, вместо того, чтобы заниматься ерундой в группировке. Джоуи последовал его совету и получил проф. лицензию.  Но однажды Джоуи убивают в одной из фанатских разборок...
stik                                     : 9
rtng                                     : 0
cnID                                     : 730990
xid                                      : Apple:vendor_id:2013-730990
iTunEXTC                                 : mpaa|R|400|
iTunMOVI                                 :  /  /  /  /   cast /    /      /       name /       Скотт Эдкинс /      /      /       name /       Марк Уингетт /      /      /       name /       Роберта Тейлор /      /      /       name /       Джордж Руссо /      /      /       name /       Билли Кук /      /      /       name /       Маркус Байрон Китинг /      /      /       name /       Крис Ховард /      /      /       name /       Майк Фьюри /      /      /       name /       Майкл Т. Росс /      /      /       name /       Алистер МакНаб /      /    /   directors /    /      /       name /       Джеймс Нанн /      /    /   producers /    /      /       name /       Джеймс Харрис /      /      /       name /       Марк Лэйн /      /      /       name /       Ронни Томпсон /      /    /   screenwriters /    /      /       name /       Ронни Томпсон /      /    /  /
Video #1
ID                                       : 1
Format                                   : AVC
Format/Info                              : Advanced Video Codec
Format profile                           : [url=mailto:High@L3.1]High@L3.1[/url]
Format settings, CABAC                   : Yes
Format settings, ReFrames                : 9 frames
Codec ID                                 : avc1
Codec ID/Info                            : Advanced Video Coding
Duration                                 : 1h 33mn
Bit rate mode                            : Variable
Bit rate                                 : 2 200 Kbps
Width                                    : 1 024 pixels
Height                                   : 432 pixels
Display aspect ratio                     : 2.40:1
Frame rate mode                          : Variable
Frame rate                               : 23.976 fps
Minimum frame rate                       : 23.810 fps
Maximum frame rate                       : 24.318 fps
Color space                              : YUV
Chroma subsampling                       : 4:2:0
Bit depth                                : 8 bits
Scan type                                : Progressive
Bits/(Pixel*Frame)                       : 0.207
Stream size                              : 1.43 GiB (87%)
Writing library                          : x264 core 142 r2479 dd79a61
Encoding settings                        : cabac=1 / ref=9 / deblock=1:0:0 / analyse=0x3:0x113 / me=umh / subme=9 / psy=1 / psy_rd=1.00:0.00 / mixed_ref=1 / me_range=32 / chroma_me=1 / trellis=1 / 8x8dct=1 / cqm=0 / deadzone=21,11 / fast_pskip=1 / chroma_qp_offset=-2 / threads=12 / lookahead_threads=1 / sliced_threads=0 / nr=0 / decimate=1 / interlaced=0 / bluray_compat=0 / constrained_intra=0 / bframes=6 / b_pyramid=2 / b_adapt=2 / b_bias=0 / direct=1 / weightb=1 / open_gop=0 / weightp=2 / keyint=240 / keyint_min=24 / scenecut=40 / intra_refresh=0 / rc_lookahead=40 / rc=2pass / mbtree=1 / bitrate=2200 / ratetol=1.0 / qcomp=0.60 / qpmin=0 / qpmax=69 / qpstep=4 / cplxblur=20.0 / qblur=0.5 / ip_ratio=1.40 / aq=1:1.00
Language                                 : English
Encoded date                             : UTC 2014-12-05 10:14:50
Tagged date                              : UTC 2014-12-05 10:15:05
Color primaries                          : BT.709-5, BT.1361, IEC 61966-2-4, SMPTE RP177
Transfer characteristics                 : BT.709-5, BT.1361
Matrix coefficients                      : BT.709-5, BT.1361, IEC 61966-2-4 709, SMPTE RP177
Video #2
ID                                       : 6
Format                                   : JPEG
Codec ID                                 : jpeg
Duration                                 : 1h 33mn
Bit rate mode                            : Variable
Bit rate                                 : 494 bps
Width                                    : 640 pixels
Height                                   : 270 pixels
Display aspect ratio                     : 2.40:1
Frame rate mode                          : Variable
Frame rate                               : 0.002 fps
Minimum frame rate                       : 0.002 fps
Maximum frame rate                       : 0.006 fps
Color space                              : YUV
Chroma subsampling                       : 4:2:0
Bit depth                                : 8 bits
Compression mode                         : Lossy
Bits/(Pixel*Frame)                       : 1.429
Stream size                              : 362 KiB (0%)
Language                                 : English
Encoded date                             : UTC 2014-12-05 10:15:10
Tagged date                              : UTC 2014-12-05 10:15:10
Audio #1
ID                                       : 2
Format                                   : AAC
Format/Info                              : Advanced Audio Codec
Format profile                           : LC
Codec ID                                 : 40
Duration                                 : 1h 33mn
Bit rate mode                            : Variable
Bit rate                                 : 157 Kbps
Maximum bit rate                         : 207 Kbps
Channel(s)                               : 2 channels
Channel positions                        : Front: L R
Sampling rate                            : 48.0 KHz
Compression mode                         : Lossy
Stream size                              : 105 MiB (6%)
Language                                 : Russian
Encoded date                             : UTC 2014-12-05 10:14:50
Tagged date                              : UTC 2014-12-05 10:15:07
Audio #2
ID                                       : 3
Format                                   : AAC
Format/Info                              : Advanced Audio Codec
Format profile                           : LC
Codec ID                                 : 40
Duration                                 : 1h 33mn
Bit rate mode                            : Variable
Bit rate                                 : 157 Kbps
Maximum bit rate                         : 246 Kbps
Channel(s)                               : 2 channels
Channel positions                        : Front: L R
Sampling rate                            : 48.0 KHz
Compression mode                         : Lossy
Stream size                              : 105 MiB (6%)
Language                                 : English
Encoded date                             : UTC 2014-12-05 10:14:50
Tagged date                              : UTC 2014-12-05 10:15:07
Text #1
ID                                       : 4
Format                                   : Timed text
Muxing mode                              : sbtl
Codec ID                                 : tx3g
Duration                                 : 1h 30mn
Bit rate mode                            : Variable
Bit rate                                 : 44 bps
Stream size                              : 28.9 KiB (0%)
Language                                 : English
Encoded date                             : UTC 2014-12-05 10:14:50
Tagged date                              : UTC 2014-12-05 10:14:50
Text #2
ID                                       : 5
Format                                   : Apple text
Codec ID                                 : text
Duration                                 : 1h 33mn
Bit rate mode                            : Constant
Bit rate                                 : 0 bps
Stream size                              : 312 Bytes (0%)
Language                                 : English
Encoded date                             : UTC 2014-12-05 10:15:07
Tagged date                              : UTC 2014-12-05 10:15:07
Menu
00:00:00.000                             : 00:00:00.000
00:07:53.765                             : 00:07:53.667
00:15:37.061                             : 00:15:36.958
00:22:06.659                             : 00:22:06.417
00:31:23.006                             : 00:31:22.917
00:39:12.642                             : 00:39:12.542
00:47:54.747                             : 00:47:54.625
00:56:29.386                             : 00:56:29.292
01:04:58.353                             : 01:04:58.250
01:11:37.835                             : 01:11:37.750
01:21:27.424                             : 01:21:27.333
01:30:16.036                             : 01:30:15.833

x264 лог

x264 [info]: frame I:1075  Avg QP:11.21  size: 65817
x264 [info]: frame P:36205 Avg QP:14.16  size: 21991
x264 [info]: frame B:96914 Avg QP:16.35  size:  6923
x264 [info]: consecutive B-frames:  4.0%  5.4% 12.7% 40.1% 17.7% 15.9%  4.1%
x264 [info]: mb I  I16..4: 10.0% 65.7% 24.4%
x264 [info]: mb P  I16..4:  3.2% 15.8%  4.4%  P16..4: 31.1% 24.4% 14.2%  0.0%  0.0%    skip: 6.9%
x264 [info]: mb B  I16..4:  0.5%  1.7%  0.5%  B16..8: 35.5% 14.2%  3.9%  direct: 5.4%  skip:38.2%  L0:43.5% L1:43.7% BI:12.8%
x264 [info]: 8x8 transform intra:65.9% inter:68.8%
x264 [info]: coded y,uvDC,uvAC intra: 73.8% 84.2% 66.6% inter: 26.4% 26.4% 5.6%
x264 [info]: i16 v,h,dc,p: 41% 16%  8% 34%
x264 [info]: i8 v,h,dc,ddl,ddr,vr,hd,vl,hu: 14% 10% 13%  8% 10% 11% 11% 11% 12%
x264 [info]: i4 v,h,dc,ddl,ddr,vr,hd,vl,hu: 16%  9%  7%  8% 13% 13% 12% 10% 11%
x264 [info]: i8c dc,h,v,p: 45% 23% 20% 12%
x264 [info]: Weighted P-Frames: Y:3.8% UV:2.2%
x264 [info]: ref P L0: 52.1%  9.1% 15.3%  6.7%  4.9%  4.0%  3.4%  2.1%  2.0%  0.4%  0.0%
x264 [info]: ref B L0: 75.8% 11.0%  5.5%  2.6%  2.2%  1.6%  1.0%  0.4%
x264 [info]: ref B L1: 92.9%  7.1%
x264 [info]: kb/s:2198.06
Скриншоты:
---
[Профиль] [ЛС]
Показать сообщения:    

Текущее время: Сегодня 00:40

Часовой пояс: GMT



Вы не можете начинать темы
Вы не можете отвечать на сообщения
Вы не можете редактировать свои сообщения
Вы не можете удалять свои сообщения
Вы не можете голосовать в опросах
Вы не можете прикреплять файлы к сообщениям
Вы не можете скачивать файлы