Хуже, чем ложь / Misconduct (2016) BDRip 1080p | L2

 
Автор Сообщение

BOSS ®

Пол:

Стаж: 2 года 1 месяц

Сообщений: 3712

Откуда: ODESSA



Награды: 20 (Подробнее)

Top Keeper 3 (Количество: 1) Top Releaser 3 (Количество: 1) Mega Seeder 4 (Количество: 1)
Торрент-статистика

Создавать темы 13-Апр-2016 18:26

[Цитировать]

Информация о фильме
Название: Хуже, чем ложь
Оригинальное название: Misconduct
Год выхода: 2016
Жанр: Триллер, драма
Режиссер: Шинтаро Шимосава
В ролях: Элис Ив, Малин Акерман, Джулия Стайлз, Аль Пачино, Глен Пауэлл, Энтони Хопкинс, Джош Дюамель, Ли Бён Хон, Крис Маркетт, Шона Гастян
О фильме:
Когда амбициозный молодой юрист берется за большое дело против влиятельного и безжалостного исполнительного директора крупной фармацевтической компании, он оказывается втянут в мир шантажа и коррупции.

Страна: США
Студия: Mike and Marty Productions
Продолжительность: 01:45:53
Перевод: Любительский двухголосый (закадровый)
Файл
Кодек: MPEG-4
Качество: BDRip 1080p
Видео: 1920x804, 10.6 Mbit/s, 23.976 fps
Звук:
Аудио #1: 48.0 Khz, AC3, 2.0, 384 Kbps | Любительский двухголосый (закадровый), den904 & DeadSno | RUS
Аудио #2: 48.0 Khz, DTS, 5.1, 1510 Kbps | Оригинал | ENG
Субтитры: Английские
Примечание: Без рекламы.

MI

Общее
Уникальный идентификатор : 254790985973053884508918045675336007241 (0xBFAEF57D63C49820A1FA2B2EC5EC7E49)
Полное имя : F:VideoMisconduct.2016.BDRip....1080p.mkv
Формат : Matroska
Версия формата : Version 4 / Version 2
Размер файла : 9,25 Гбайт
Продолжительность : 1 ч. 45 м.
Общий поток : 12,5 Мбит/сек
Название фильма : Misconduct.2016.BDRip.1080p
Дата кодирования : UTC 2016-04-13 04:39:21
Программа кодирования : mkvmerge v8.3.0 ('Over the Horizon') 64bit
Библиотека кодирования : libebml v1.3.1 + libmatroska v1.4.2
Attachments : 14d2da9a.jpg
Видео
Идентификатор : 1
Формат : AVC
Формат/Информация : Advanced Video Codec
Профиль формата : High@L4.1
Параметр CABAC формата : Да
Параметр ReFrames формата : 5 кадров
Идентификатор кодека : V_MPEG4/ISO/AVC
Продолжительность : 1 ч. 45 м.
Битрейт : 10,6 Мбит/сек
Ширина : 1920 пикселей
Высота : 804 пикселя
Соотношение сторон : 2,40:1
Режим частоты кадров : Постоянный
Частота кадров : 23,976 (24000/1001) кадра/сек
Цветовое пространство : YUV
Субдискретизация насыщенности : 4:2:0
Битовая глубина : 8 бит
Тип развёртки : Прогрессивная
Бит/(Пиксели*Кадры) : 0.286
Размер потока : 7,84 Гбайт (85%)
Библиотека кодирования : x264 core 146 r2538 121396c
Настройки программы : cabac=1 / ref=5 / deblock=1:-3:-3 / analyse=0x3:0x133 / me=tesa / subme=11 / psy=1 / psy_rd=1.04:0.00 / mixed_ref=1 / me_range=32 / chroma_me=1 / trellis=2 / 8x8dct=1 / cqm=0 / deadzone=21,11 / fast_pskip=0 / chroma_qp_offset=-2 / threads=48 / lookahead_threads=6 / sliced_threads=0 / nr=0 / decimate=0 / interlaced=0 / bluray_compat=0 / constrained_intra=0 / bframes=12 / b_pyramid=2 / b_adapt=2 / b_bias=0 / direct=3 / weightb=1 / open_gop=0 / weightp=2 / keyint=240 / keyint_min=23 / scenecut=40 / intra_refresh=0 / rc_lookahead=150 / rc=crf / mbtree=0 / crf=17.3 / qcomp=0.60 / qpmin=0 / qpmax=69 / qpstep=4 / vbv_maxrate=62500 / vbv_bufsize=78125 / crf_max=0.0 / nal_hrd=none / filler=0 / ip_ratio=1.40 / pb_ratio=1.30 / aq=1:0.80
Язык : English
Default : Да
Forced : Нет
Аудио #1
Идентификатор : 2
Формат : AC-3
Формат/Информация : Audio Coding 3
Расширение режима : CM (complete main)
Параметр Endianness формата : Big
Идентификатор кодека : A_AC3
Продолжительность : 1 ч. 45 м.
Вид битрейта : Постоянный
Битрейт : 384 Кбит/сек
Каналы : 2 канала
Расположение каналов : Front: L R
Частота : 48,0 КГц
Частота кадров : 31,250 кадров/сек (1536 spf)
Метод сжатия : С потерями
Размер потока : 291 Мбайт (3%)
Язык : Russian
Default : Да
Forced : Нет
Аудио #2
Идентификатор : 3
Формат : DTS
Формат/Информация : Digital Theater Systems
Режим : 16
Параметр Endianness формата : Big
Идентификатор кодека : A_DTS
Продолжительность : 1 ч. 45 м.
Вид битрейта : Постоянный
Битрейт : 1509 Кбит/сек
Каналы : 6 каналов
Расположение каналов : Front: L C R, Side: L R, LFE
Частота : 48,0 КГц
Частота кадров : 93,750 кадра/сек (512 spf)
Битовая глубина : 24 бит
Метод сжатия : С потерями
Размер потока : 1,12 Гбайт (12%)
Язык : English
Default : Нет
Forced : Нет
Текст #1
Идентификатор : 4
Формат : UTF-8
Идентификатор кодека : S_TEXT/UTF8
Идентификатор кодека/Информация : UTF-8 Plain Text
Продолжительность : 1 ч. 40 м.
Битрейт : 56 бит/сек
Count of elements : 1065
Размер потока : 41,7 Кбайт (0%)
Заголовок : English
Язык : English
Default : Нет
Forced : Нет
Текст #2
Идентификатор : 5
Формат : VobSub
Режим смешивания : zlib
Идентификатор кодека : S_VOBSUB
Идентификатор кодека/Информация : Picture based subtitle format used on DVDs
Продолжительность : 1 ч. 40 м.
Битрейт : 5297 бит/сек
Count of elements : 1178
Размер потока : 3,81 Мбайт (0%)
Язык : English
Default : Нет
Forced : Нет
Текст #3
Идентификатор : 6
Формат : VobSub
Режим смешивания : zlib
Идентификатор кодека : S_VOBSUB
Идентификатор кодека/Информация : Picture based subtitle format used on DVDs
Продолжительность : 1 ч. 40 м.
Битрейт : 5582 бит/сек
Count of elements : 1277
Размер потока : 4,01 Мбайт (0%)
Язык : English
Default : Нет
Forced : Нет
Меню
00:00:00.000 : en:Chapter 1
00:09:31.946 : en:Chapter 2
00:15:35.810 : en:Chapter 3
00:25:51.925 : en:Chapter 4
00:34:03.583 : en:Chapter 5
00:37:49.809 : en:Chapter 6
00:44:09.856 : en:Chapter 7
00:50:30.694 : en:Chapter 8
00:58:21.540 : en:Chapter 9
01:03:56.166 : en:Chapter 10
01:11:36.751 : en:Chapter 11
01:18:43.052 : en:Chapter 12
01:24:04.206 : en:Chapter 13
01:29:02.796 : en:Chapter 14
01:35:34.270 : en:Chapter 15
01:37:01.274 : en:Chapter 16

Скриншоты

[Профиль] [ЛС]
Показать сообщения:    

Текущее время: Сегодня 09:54

Часовой пояс: GMT



Вы не можете начинать темы
Вы не можете отвечать на сообщения
Вы не можете редактировать свои сообщения
Вы не можете удалять свои сообщения
Вы не можете голосовать в опросах
Вы не можете прикреплять файлы к сообщениям
Вы не можете скачивать файлы