Хуже быть не могло / Worst-Case Scenario / 12 серий из 12 [2010, Документальный, познавательный, HDTVRip 720p]

 
Автор Сообщение

TorrentFilm ®

Пол:

Стаж: 2 года

Сообщений: 7741



Награды: Нет

Торрент-статистика

Создавать темы 03-Мар-2015 00:00

[Цитировать]

Хуже быть не могло / Worst-Case Scenario
-Год выпуска: 2010
Страна: США
Производство: Pilgrim Films & Television for Discovery Communications LLC
Жанр: Документальный, познавательный
Продолжительность: 12 x ~00:22:00-Перевод: Студийный (одноголосый закадровый)
Русские субтитры: нет-В главной роли: Беар Гриллс-Описание: Discovery Channel и Беар Гриллс призывают никогда не терять оптимизма!
Замучили проблемы на работе? Опоздали на самолет? Упали в лужу в новом дорогом костюме? Вам кажется, что все просто ужасно? Посмотрите программу «Хуже быть не могло» в рамках цикла «Жизнь на грани», и вы получите настоящий заряд оптимизма: все это цветочки по сравнению с невыдуманными ситуациями, в которых оказались герои нового сериала. Эти люди не искали приключений: они мирно спали в своем доме, ехали в автомобиле или прогуливались по улице. Но как быть, если в дом ворвались грабители, на автомобиль обрушилась линия электропередач под высоким напряжением, а в городе началось землетрясение? Ответы на эти вопросы даст ведущий программы — эксперт-экстремал Беар Гриллс, который в каждой серии будет приходить на выручку тем, кто оказался в плену у обстоятельств.
Программа снята по одноименной серии книг, ставших мировыми бестселлерами. В них рассказывается о том, как выжить в большом городе. Опасности подстерегают нас не только в дикой природе. Даже посреди сверхсовременного мегаполиса каждый внезапно может оказаться в смертельной опасности. Могут отказать даже самые надежные механизмы, обрушиться самые прочные здания — и тогда жизнь напрямую будет зависеть от хладнокровия и знания базовых приемов выживания. Этим приемам Беар обучит зрителей программы, демонстрируя каждую из техник на реальных примерах, когда с их помощью были спасены человеческие жизни.
В одном из выпусков программы вы увидите, как Беару удалось перехитрить двух разъяренных собак, от которых не получилось бы спастись бегством. В другом выпуске Беар вытаскивает водителя из объятой пламенем машины и успевает выбраться сам буквально за секунду до взрыва! Кроме того, Беар покажет, как действовать во время землетрясения, как не разбиться, падая в лифте, у которого оборвался трос, и даже как освободиться и не замерзнуть, если вас случайно заперли в работающем рефрижераторе! Узнайте секреты выживания в большом городе из программы Discovery Channel «Хуже быть не могло».-Источник записи: Рип с HDTV-записи телеканала Discovery HD
Автор рипа - san007-Доп. информация: К сожалению, в раздаче нет эпизодов: 1, 2, 9. Они будут записаны и добавлены, если канал Discovery надумает показать повтор всех серий Worst-Case Scenario.-Тип релиза: HDTVRip 720p
Контейнер: MKV-Видео: AVC H.264, 1280x720p (16:9), 25p fps, ~3840 kbps, ~0.16,7 bits/pixel
Аудио 1: Russian, AC3, 48KHz, 5.1 (6 channels), 384 kbps
Аудио 2: English, AC3, 48KHz, 5.1 (6 channels), 384 kbps-

Раздача в HDTV 1080i-

Список эпизодов

S01E01 Burning Car, Boating Accident - Горящий автомобиль, Авария на воде
S01E02 Downed Power Line, Dog Attack - Обрыв линии электропередач, Нападение собак
S01E03 Sinking Car, Rattlesnake Encounter - Тонущий автомобиль, Встреча с гремучей змеёй
S01E04 Earthquake - Землетрясение
S01E05 Car Brakes Fail, Physical Attack - Отказ тормозов, Нападение человека
S01E06 Trapped in Extreme Cold - В ледяной ловушке
S01E07 Desert Breakdown, Tarantula - Поломка в пустыне, Тарантул
S01E08 Elevator Plunge, Blackout - Падение лифта, В полной темноте
S01E09 Mountain Bike Accident, Being Chased - Падение с горного велосипеда, Спасение бегством
S01E10 Road Rage, Nightclub Stampede - Агрессия на дороге, Паника в толпе
S01E11 Chemical Spill [Toxic Gas Leak], Barbecue Fire [Man on Fire] - Разлив химикатов [Утечка газа], Возгорание у мангала [Человек в огне]
S01E12 Home Invasion [Home Break-In], Building Escape [Terror Threat] - Вторжение в дом [Плен в своём доме], Спасение из здания [Атака террористов]

MediaInfo

General
Format : Matroska
Format version : Version 4 / Version 2
File size : 712 MiB
Duration : 21mn 35s
Overall bit rate : 4 609 Kbps
Movie name : Worst-Case Scenario S01E06 Trapped in Extreme Cold
Writing application : mkvmerge v7.0.0 ('Where We Going') 64bit
Writing library : libebml v1.3.0 + libmatroska v1.4.1
Video
ID : 1
Format : AVC
Format/Info : Advanced Video Codec
Format profile : High@L4.1
Format settings, CABAC : Yes
Format settings, ReFrames : 8 frames
Codec ID : V_MPEG4/ISO/AVC
Duration : 21mn 35s
Bit rate : 3 840 Kbps
Width : 1 280 pixels
Height : 720 pixels
Display aspect ratio : 16:9
Frame rate mode : Constant
Frame rate : 25.000 fps
Color space : YUV
Chroma subsampling : 4:2:0
Bit depth : 8 bits
Scan type : Progressive
Bits/(Pixel*Frame) : 0.167
Stream size : 579 MiB (81%)
Writing library : x264 core 142 r2431kMod ac76440
Encoding settings : cabac=1 / ref=8 / deblock=1:-1:-1 / analyse=0x3:0x133 / me=umh / subme=9 / psy=1 / fade_compensate=0.00 / psy_rd=1.00:0.10 / mixed_ref=1 / me_range=24 / chroma_me=1 / trellis=2 / 8x8dct=1 / cqm=0 / deadzone=21,11 / fast_pskip=1 / chroma_qp_offset=-3 / threads=6 / lookahead_threads=1 / sliced_threads=0 / nr=0 / decimate=1 / interlaced=0 / bluray_compat=0 / constrained_intra=0 / fgo=0 / bframes=8 / b_pyramid=2 / b_adapt=2 / b_bias=0 / direct=3 / weightb=1 / open_gop=0 / weightp=2 / keyint=250 / keyint_min=25 / scenecut=40 / intra_refresh=0 / rc_lookahead=60 / rc=2pass / mbtree=1 / bitrate=3840 / ratetol=1.0 / qcomp=0.60 / qpmin=0 / qpmax=69 / qpstep=4 / cplxblur=20.0 / qblur=0.5 / ip_ratio=1.40 / aq=1:1.00
Default : Yes
Forced : No
Audio #1
ID : 2
Format : AC-3
Format/Info : Audio Coding 3
Mode extension : CM (complete main)
Format settings, Endianness : Big
Codec ID : A_AC3
Duration : 21mn 35s
Bit rate mode : Constant
Bit rate : 384 Kbps
Channel(s) : 6 channels
Channel positions : Front: L C R, Side: L R, LFE
Sampling rate : 48.0 KHz
Bit depth : 16 bits
Compression mode : Lossy
Stream size : 59.3 MiB (8%)
Title : Russian
Language : Russian
Default : Yes
Forced : No
Audio #2
ID : 3
Format : AC-3
Format/Info : Audio Coding 3
Mode extension : CM (complete main)
Format settings, Endianness : Big
Codec ID : A_AC3
Duration : 21mn 35s
Bit rate mode : Constant
Bit rate : 384 Kbps
Channel(s) : 6 channels
Channel positions : Front: L C R, Side: L R, LFE
Sampling rate : 48.0 KHz
Bit depth : 16 bits
Compression mode : Lossy
Stream size : 59.3 MiB (8%)
Title : English
Language : English
Default : No
Forced : No

Скриншоты

[Профиль] [ЛС]
Кто просматривает тему:

Показать сообщения:    

Текущее время: Сегодня 05:18

Часовой пояс: GMT



Вы не можете начинать темы
Вы не можете отвечать на сообщения
Вы не можете редактировать свои сообщения
Вы не можете удалять свои сообщения
Вы не можете голосовать в опросах
Вы не можете прикреплять файлы к сообщениям
Вы не можете скачивать файлы