Художник / The Artist / El artista (Мариано Кон / Mariano Cohn, Гастон Дюпра / Gaston Duprat) [2008, Аргентина, Италия, комедия, драма, DVDRip-AVC] MVO (СВ-Дубль)

 
Автор Сообщение

TorrentFilm ®

Пол:

Стаж: 2 года

Сообщений: 7741



Награды: Нет

Торрент-статистика

Создавать темы 31-Мар-2016 00:08

[Цитировать]

Художник / The Artist / El artista
Страна: Аргентина, Италия
Жанр: комедия, драма
Год выпуска: 2008
Продолжительность: 01:31:16
Перевод: Профессиональный (многоголосый закадровый) студия "СВ-Дубль" по заказу "Камер-Тон-Медиа"
Cубтитры: украинские (Посольство Аргентинської Республіки в Україні), английские
Оригинальная аудиодорожка: испанский
Режиссер: Мариано Кон / Mariano Cohn, Гастон Дюпра / Gastón Duprat
В ролях: Серджио Пангаро, Альберто Лаисека, Андрес Дюпра, Энрике Гальези, Леон Феррари, Горацио Гонзалез, Лусиана Фаучи, Диего Пердомо
Описание: Хорхе Рамирес, санитар дома престарелых, становится знаменитым благодаря рисункам, которые он однажды представил картинной галерее. Но автором интересных работ является не Хорхе, а пациент, за которым он ухаживает.
Доп. информация: русская дорожка взята с канала Культура ([url=viewtopic.php?t=5084701]http://torrentfilm.net/forum/viewtopic.php?t=5084701[/url])
Сравнение: http://screenshotcomparison.com/comparison/167262
Сэмпл: http://sendfile.su/1219459
Качество видео: DVDRip-AVC
Формат видео: MKV
Видео: x264, 720x480, 16:9, 23.976fps, 2100kbps
Аудио: aac, 48hz, 62kbps, stereo
Аудио 2: aac, 48hz, 78kbps, stereo
Формат субтитров: softsub (SRT)

MediaInfo

General
Unique ID : 186262857725861196740770861797960013105 (0x8C20EBE8DFF34EDDAEF36C46AAE35531)
Complete name : C:\Movies\el.artista.[2008.rus.spa].mkv
Format : Matroska
Format version : Version 4 / Version 2
File size : 1.43 GiB
Duration : 1h 31mn
Overall bit rate : 2 243 Kbps
Encoded date : UTC 2016-03-28 14:05:30
Writing application : mkvmerge v9.0.0 ('Power to progress') 64bit
Writing library : libebml v1.3.3 + libmatroska v1.4.4
Video
ID : 1
Format : AVC
Format/Info : Advanced Video Codec
Format profile : High@L4
Format settings, CABAC : Yes
Format settings, ReFrames : 16 frames
Codec ID : V_MPEG4/ISO/AVC
Duration : 1h 31mn
Bit rate : 2 100 Kbps
Width : 720 pixels
Height : 480 pixels
Display aspect ratio : 16:9
Original display aspect ratio : 3:2
Frame rate mode : Constant
Frame rate : 23.976 (24000/1001) fps
Color space : YUV
Chroma subsampling : 4:2:0
Bit depth : 8 bits
Scan type : Progressive
Bits/(Pixel*Frame) : 0.253
Stream size : 1.34 GiB (94%)
Writing library : x264 core 146 r2538bm 121396c
Encoding settings : cabac=1 / ref=16 / deblock=1:-1:-1 / analyse=0x3:0x133 / me=umh / subme=10 / psy=1 / psy_rd=1.00:0.15 / mixed_ref=1 / me_range=24 / chroma_me=1 / trellis=2 / 8x8dct=1 / cqm=0 / deadzone=21,11 / fast_pskip=1 / chroma_qp_offset=-3 / threads=6 / lookahead_threads=1 / sliced_threads=0 / nr=0 / decimate=1 / interlaced=0 / bluray_compat=0 / constrained_intra=0 / bframes=8 / b_pyramid=2 / b_adapt=2 / b_bias=0 / direct=3 / weightb=1 / open_gop=0 / weightp=2 / keyint=250 / keyint_min=23 / scenecut=40 / intra_refresh=0 / rc_lookahead=60 / rc=2pass / mbtree=1 / bitrate=2100 / ratetol=1.0 / qcomp=0.60 / qpmin=0 / qpmax=69 / qpstep=4 / cplxblur=20.0 / qblur=0.5 / ip_ratio=1.40 / aq=1:1.00
Default : Yes
Forced : No
Audio #1
ID : 2
Format : AAC
Format/Info : Advanced Audio Codec
Format profile : HE-AAC / LC
Codec ID : A_AAC
Duration : 1h 31mn
Bit rate : 62.0 Kbps
Channel(s) : 2 channels
Channel positions : Front: L R
Sampling rate : 48.0 KHz / 24.0 KHz
Frame rate : 23.438 fps (1024 spf)
Compression mode : Lossy
Stream size : 40.4 MiB (3%)
Language : Russian
Default : Yes
Forced : No
Audio #2
ID : 3
Format : AAC
Format/Info : Advanced Audio Codec
Format profile : HE-AAC / LC
Codec ID : A_AAC
Duration : 1h 31mn
Bit rate : 78.0 Kbps
Channel(s) : 2 channels
Channel positions : Front: L R
Sampling rate : 48.0 KHz / 24.0 KHz
Frame rate : 23.438 fps (1024 spf)
Compression mode : Lossy
Stream size : 50.9 MiB (3%)
Language : Spanish
Default : No
Forced : No
Text #1
ID : 4
Format : UTF-8
Codec ID : S_TEXT/UTF8
Codec ID/Info : UTF-8 Plain Text
Duration : 1h 24mn
Bit rate : 40 bps
Count of elements : 775
Stream size : 25.2 KiB (0%)
Language : English
Default : No
Forced : No
Text #2
ID : 5
Format : UTF-8
Codec ID : S_TEXT/UTF8
Codec ID/Info : UTF-8 Plain Text
Duration : 1h 27mn
Bit rate : 69 bps
Count of elements : 778
Stream size : 44.2 KiB (0%)
Language : Ukrainian
Default : No
Forced : No

Скриншот c названием фильма

Скриншоты

[Профиль] [ЛС]

Создавать темы 12-Июн-2016 08:50 (спустя 2 месяца 12 дней)

Топик был перенесен из форума Фильмы 2011 года в форум Фильмы 2006-2008 года
Russian Mafia
 
Кто просматривает тему:

Форум Тема Автор Размер
National Geographic NG: Марс / Mars [серии 1-3 из 6] (Эверардо Валерио Гоут) [2016 г., Художественно-документальный, HDTVRip 720p] skorpionN 5.29 GB
XXXI Летние Олимпийские игры. Рио-де-Жанейро 2016 (Бразилия) XXXI Летние Олимпийские Игры. Рио-де-Жанейро (Бразилия). Художественная гимнастика. Индивидуальное многоборье. Квалификация. Финал [19.08] (2016) IPTV 1080i достали все 3.44 GB
XXXI Летние Олимпийские игры. Рио-де-Жанейро 2016 (Бразилия) XXXI Летние Олимпийские Игры. Рио-де-Жанейро (Бразилия). Художественная гимнастика. Индивидуальное многоборье. Лента и булава. Квалификация. Финал [19.08] (2016) IPTV 1080i ODESSA 6.34 GB
XXXI Летние Олимпийские игры. Рио-де-Жанейро 2016 (Бразилия) XXXI Летние Олимпийские Игры. Рио-де-Жанейро (Бразилия). Художественная гимнастика. Личное первенство. Квалификация [19.08] (2016) IPTVRip-AVC достали все 7.48 GB
Разная литература Подборка книг о рок-музыке (247 книг) [документальная и художественная проза, мемуары, FB2, TXT, PDF] Garik014 411 MB
Документальные HD Санкт-Петербургская Академия Художеств (RTGHD) [2013, Документальный, HDTVRip 1080i] TorrentFilm 1.79 GB
Фильмы 2006-2008 года Художник / El artista ( Мариано Кон / Mariano Cohn, Гастон Дюпра / Gastón Duprat )[2008, Аргентина, Италия, драма, комедия, SATRip] MVO TorrentFilm 1.16 GB
Фильмы 2006-2008 года Художник / El artista (Мариано Кон / Mariano Cohn, Гастон Дюпра / Gastón Duprat) [2008, Аргентина, Италия, драма, комедия, SATRip-AVC] MVO (СВ-Дубль) TorrentFilm 1.36 GB
Показать сообщения:    

Текущее время: Сегодня 21:02

Часовой пояс: GMT



Вы не можете начинать темы
Вы не можете отвечать на сообщения
Вы не можете редактировать свои сообщения
Вы не можете удалять свои сообщения
Вы не можете голосовать в опросах
Вы не можете прикреплять файлы к сообщениям
Вы не можете скачивать файлы