Художник / El artista (Мариано Кон / Mariano Cohn, Гастон Дюпра / Gastón Duprat) [2008, Аргентина, Италия, драма, комедия, SATRip] MVO (СВ-Дубль) + Original Spa

 
Автор Сообщение

TorrentFilm ®

Пол:

Стаж: 2 года

Сообщений: 7741



Награды: Нет

Торрент-статистика

Создавать темы 28-Сен-2015 00:10

[Цитировать]

Художник / El artista
Страна: Аргентина, Италия
Жанр: драма, комедия
Год выпуска: 2008
Продолжительность: 01:31:15
Перевод: Профессиональный (многоголосый закадровый) студия "СВ-Дубль" по заказу "Камер-Тон-Медиа"
Cубтитры: нет
Оригинальная аудиодорожка: испанский
Режиссер: Мариано Кон / Mariano Cohn, Гастон Дюпра / Gastón Duprat
В ролях: Серджио Пангаро, Альберто Лаисека, Андрес Дюпра, Энрике Гальези, Леон Феррари, Горацио Гонзалез, Лусиана Фаучи, Диего Пердомо
Описание: Хорхе Рамирес, санитар дома престарелых, становится знаменитым благодаря рисункам, которые он однажды представил картинной галерее. Но автором интересных работ является не Хорхе, а пациент, за которым он ухаживает.
Доп. информация: Рип с канала Культура. Остатки логотипа замазаны.
Сэмпл: http://multi-up.com/1068088
Качество видео: SATRip
Формат видео: AVI
Видео: MPEG4, XviD, 720x416 (16:9), 25.000 fps, 1 879 Kbps (0.251 bit/pixel)
Аудио: AC-3, 48.0 KHz, 2 ch, 192 Kbps, CBR - русский
Аудио 2: AC-3, 48.0 KHz, 2 ch, 192 Kbps, CBR - испанский

MediaInfo

Общее
Полное имя : K:\Художник.avi
Формат : AVI
Формат/Информация : Audio Video Interleave
Размер файла : 1,45 Гбайт
Продолжительность : 1 ч. 31 м.
Общий поток : 2277 Кбит/сек
Название фильма : Художник / El artista (2008)
Программа кодирования : VirtualDubMod 1.5.10.2 (build 2540/release)
Библиотека кодирования : VirtualDubMod build 2540/release
Авторское право : miha2154
Видео
Идентификатор : 0
Формат : MPEG-4 Visual
Профиль формата : Advanced Simple@L5
Параметр BVOP формата : 1
Параметр QPel формата : Нет
Параметр GMC формата : Без точки перехода
Параметр матрицы формата : Выборочная
Идентификатор кодека : XVID
Идентификатор кодека/Подсказка : XviD
Продолжительность : 1 ч. 31 м.
Битрейт : 1879 Кбит/сек
Ширина : 720 пикселей
Высота : 416 пикселей
Соотношение сторон : 1,731
Частота кадров : 25,000 кадров/сек
Цветовое пространство : YUV
Субдискретизация насыщенности : 4:2:0
Битовая глубина : 8 бит
Тип развёртки : Прогрессивная
Метод сжатия : С потерями
Бит/(Пиксели*Кадры) : 0.251
Размер потока : 1,20 Гбайт (82%)
Библиотека кодирования : XviD 65
Аудио #1
Идентификатор : 1
Формат : AC-3
Формат/Информация : Audio Coding 3
Расширение режима : CM (complete main)
Параметр Endianness формата : Big
Идентификатор кодека : 2000
Продолжительность : 1 ч. 31 м.
Вид битрейта : Постоянный
Битрейт : 192 Кбит/сек
Каналы : 2 канала
Расположение каналов : Front: L R
Частота : 48,0 КГц
Метод сжатия : С потерями
Размер потока : 125 Мбайт (8%)
Выравнивание : Разделение по промежуткам
Продолжительность промежутка : 40 мс. (1,00 видеокадр)
Время предзагрузки промежутка : 500 мс.
Заголовок : Профессиональный (многоголосый закадровый) Культура
Аудио #2
Идентификатор : 2
Формат : AC-3
Формат/Информация : Audio Coding 3
Расширение режима : CM (complete main)
Параметр Endianness формата : Big
Идентификатор кодека : 2000
Продолжительность : 1 ч. 31 м.
Вид битрейта : Постоянный
Битрейт : 192 Кбит/сек
Каналы : 2 канала
Расположение каналов : Front: L R
Частота : 48,0 КГц
Метод сжатия : С потерями
Размер потока : 125 Мбайт (8%)
Выравнивание : Разделение по промежуткам
Продолжительность промежутка : 40 мс. (1,00 видеокадр)
Время предзагрузки промежутка : 500 мс.
Заголовок : Испанский

Сравнение

http://torrentfilm.net/forum/viewtopic.php?t=5081129 - недокроп, не mod16, нестандартный вес.
http://screenshotcomparison.com/comparison/144049

Скриншоты


[Профиль] [ЛС]

Создавать темы 12-Июн-2016 08:50 (спустя 8 месяцев 14 дней)

Топик был перенесен из форума Фильмы 2011 года в форум Фильмы 2006-2008 года
Russian Mafia
 
Кто просматривает тему:

Форум Тема Автор Размер
National Geographic NG: Марс / Mars [серии 1-4 из 6] (Эверардо Валерио Гоут) [2016 г., Художественно-документальный, HDTVRip 720p] skorpionN 7.05 GB
XXXI Летние Олимпийские игры. Рио-де-Жанейро 2016 (Бразилия) XXXI Летние Олимпийские Игры. Рио-де-Жанейро (Бразилия). Художественная гимнастика. Индивидуальное многоборье. Квалификация. Финал [19.08] (2016) IPTV 1080i достали все 3.44 GB
XXXI Летние Олимпийские игры. Рио-де-Жанейро 2016 (Бразилия) XXXI Летние Олимпийские Игры. Рио-де-Жанейро (Бразилия). Художественная гимнастика. Индивидуальное многоборье. Лента и булава. Квалификация. Финал [19.08] (2016) IPTV 1080i ODESSA 6.34 GB
XXXI Летние Олимпийские игры. Рио-де-Жанейро 2016 (Бразилия) XXXI Летние Олимпийские Игры. Рио-де-Жанейро (Бразилия). Художественная гимнастика. Личное первенство. Квалификация [19.08] (2016) IPTVRip-AVC достали все 7.48 GB
Разная литература Подборка книг о рок-музыке (247 книг) [документальная и художественная проза, мемуары, FB2, TXT, PDF] Garik014 411 MB
Документальные HD Санкт-Петербургская Академия Художеств (RTGHD) [2013, Документальный, HDTVRip 1080i] TorrentFilm 1.79 GB
Фильмы 2006-2008 года Художник / El artista ( Мариано Кон / Mariano Cohn, Гастон Дюпра / Gastón Duprat )[2008, Аргентина, Италия, драма, комедия, SATRip] MVO TorrentFilm 1.16 GB
Фильмы 2006-2008 года Художник / El artista (Мариано Кон / Mariano Cohn, Гастон Дюпра / Gastón Duprat) [2008, Аргентина, Италия, драма, комедия, SATRip-AVC] MVO (СВ-Дубль) TorrentFilm 1.36 GB
Показать сообщения:    

Текущее время: Сегодня 06:05

Часовой пояс: GMT



Вы не можете начинать темы
Вы не можете отвечать на сообщения
Вы не можете редактировать свои сообщения
Вы не можете удалять свои сообщения
Вы не можете голосовать в опросах
Вы не можете прикреплять файлы к сообщениям
Вы не можете скачивать файлы