Художник / El artista ( Мариано Кон / Mariano Cohn, Гастон Дюпра / Gastón Duprat )[2008, Аргентина, Италия, драма, комедия, SATRip] MVO

 
Автор Сообщение

TorrentFilm ®

Пол:

Стаж: 1 год 11 месяцев

Сообщений: 7741



Награды: Нет

Торрент-статистика

Создавать темы 22-Сен-2015 00:08

[Цитировать]

Художник / El artista
Страна: Аргентина, Италия
Жанр: драма, комедия,
Год выпуска: 2008
Продолжительность: 01:31:11
Перевод: Профессиональный (многоголосый закадровый)
Cубтитры: нет
Режиссер: Мариано Кон / Mariano Cohn, Гастон Дюпра / Gastón Duprat
В ролях: Альберто Лаисека, Андрес Дюпра, Энрике Гаглиеси, Леон Феррари, Горацио Гонзалез,
Описание: Хорхе Рамирес, санитар дома престарелых, становится знаменитым благодаря рисункам, которые он однажды представил картинной галерее. Но автором интересных работ является не Хорхе, а пациент, за которым он ухаживает.
Сэмпл: http://multi-up.com/1067114
Качество видео: SATRip
Формат видео: AVI
Видео: 720x424 (1.70:1), 25 fps, XviD MPEG-4 ~1621 kbps avg, 0.21 bit/pixel
Аудио: 44.100 kHz, MPEG Layer 3, 1 ch, ~192.00 kbps avg

MediaInfo

Format : AVI
Format/Info : Audio Video Interleave
Format profile : OpenDML
File size : 1.16 GiB
Duration : 1h 31mn
Overall bit rate : 1 821 Kbps
Writing application : Lavf52.39.1
Video
ID : 0
Format : xvid
Codec ID : xvid
Duration : 1h 31mn
Bit rate : 1 613 Kbps
Width : 720 pixels
Height : 424 pixels
Display aspect ratio : 1.698
Frame rate : 25.000 fps
Bits/(Pixel*Frame) : 0.211
Stream size : 1.03 GiB (89%)
Audio
ID : 1
Format : MPEG Audio
Format version : Version 1
Format profile : Layer 3
Codec ID : 55
Codec ID/Hint : MP3
Duration : 1h 31mn
Bit rate mode : Constant
Bit rate : 192 Kbps
Channel(s) : 1 channel
Sampling rate : 44.1 KHz
Compression mode : Lossy
Stream size : 125 MiB (11%)
Alignment : Aligned on interleaves
Interleave, duration : 26 ms (0.65 video frame)
Interleave, preload duration : 26 ms
Writing library : LAME3.96.1

Скриншот c названием фильма

Скриншоты

[Профиль] [ЛС]

Создавать темы 12-Июн-2016 08:50 (спустя 8 месяцев 20 дней)

Топик был перенесен из форума Фильмы 2011 года в форум Фильмы 2006-2008 года
Russian Mafia
 
Кто просматривает тему:

Форум Тема Автор Размер
National Geographic NG: Марс / Mars [серии 1-3 из 6] (Эверардо Валерио Гоут) [2016 г., Художественно-документальный, HDTVRip 720p] skorpionN 5.29 GB
XXXI Летние Олимпийские игры. Рио-де-Жанейро 2016 (Бразилия) XXXI Летние Олимпийские Игры. Рио-де-Жанейро (Бразилия). Художественная гимнастика. Индивидуальное многоборье. Квалификация. Финал [19.08] (2016) IPTV 1080i достали все 3.44 GB
XXXI Летние Олимпийские игры. Рио-де-Жанейро 2016 (Бразилия) XXXI Летние Олимпийские Игры. Рио-де-Жанейро (Бразилия). Художественная гимнастика. Индивидуальное многоборье. Лента и булава. Квалификация. Финал [19.08] (2016) IPTV 1080i ODESSA 6.34 GB
XXXI Летние Олимпийские игры. Рио-де-Жанейро 2016 (Бразилия) XXXI Летние Олимпийские Игры. Рио-де-Жанейро (Бразилия). Художественная гимнастика. Личное первенство. Квалификация [19.08] (2016) IPTVRip-AVC достали все 7.48 GB
Разная литература Подборка книг о рок-музыке (247 книг) [документальная и художественная проза, мемуары, FB2, TXT, PDF] Garik014 411 MB
Документальные HD Санкт-Петербургская Академия Художеств (RTGHD) [2013, Документальный, HDTVRip 1080i] TorrentFilm 1.79 GB
Фильмы 2006-2008 года Художник / El artista (Мариано Кон / Mariano Cohn, Гастон Дюпра / Gastón Duprat) [2008, Аргентина, Италия, драма, комедия, SATRip-AVC] MVO (СВ-Дубль) TorrentFilm 1.36 GB
Фильмы 2006-2008 года Художник / El artista (Мариано Кон / Mariano Cohn, Гастон Дюпра / Gastón Duprat) [2008, Аргентина, Италия, драма, комедия, SATRip] MVO (СВ-Дубль) + Original Spa TorrentFilm 1.45 GB
Показать сообщения:    

Текущее время: Сегодня 20:09

Часовой пояс: GMT



Вы не можете начинать темы
Вы не можете отвечать на сообщения
Вы не можете редактировать свои сообщения
Вы не можете удалять свои сообщения
Вы не можете голосовать в опросах
Вы не можете прикреплять файлы к сообщениям
Вы не можете скачивать файлы