Хроники Шаннары / The Shannara Chronicles (Сезон 1, Серия 1-10 из 10) (Брэд Тёрнер, Джонатан Либесман, Джеймс) [2016 , , Фантастика, фэнтези, приключения, экранизация , WEB-DLRip 1080p ] [MVO] [NewStudio , AlexFilm , LostFilm , Jaskier] + [Subs ENG]

 
Автор Сообщение

Враг Нароода ®

Стаж: 1 год 8 месяцев

Сообщений: 112



Награды: 2 (Подробнее)

Mega Seeder 1 (Количество: 1) За внесенный вклад в развитие сайта (Количество: 1)
Торрент-статистика

Создавать темы 11-Янв-2016 11:03

[Цитировать]

--Хроники Шаннары / The Shannara Chronicles Сезон 1, Серия 1-10 из 10-- --Год выпуска: 2016
Выпущено: США ,MTV, Farah Films, Music Television (MTV), Sonar Entertainment
Жанр: Фантастика, фэнтези, приключения, экранизация
Продолжительность: 00:41:00
Сезон:1
Серия: 1-10
Количество серий в сезоне: 10
Озвучка 1: Профессиональный многоголосый - NewStudio
Озвучка 2: Профессиональный многоголосый - AlexFilm
Озвучка 3: Профессиональный многоголосый -LostFilm
Озвучка 4: Профессиональный многоголосый - Jaskier
Озвучка 5: Профессиональный многоголосый - Английский - Оригинал
Субтитры: : Английские -- --Режиссер: Брэд Тёрнер, Джонатан Либесман, Джеймс Маршалл--В ролях: Поппи Дрейтон, Остин Роберт Батлер, Ивана Бакеро, Ману Беннетт, Эмилия Бёрнс, Аарон Якубенко, Джон Рис-Дэвис, Маркус Ванко, Брук Уильямс, Дэниэл МакФерсон-- События сериала происходят в далёком будущем. Войны разделили Северную Америку на 4 части. На какой-то из них обитают эльфы, на иной — люди, на третьей — тролли и на четвёртой — дворфы.
Основными персонажами сериала окажутся отпрыски древнего рода эльфов — Шаннара. Именно от них будет зависеть будущая судьба планеты…
-- --Качество :WEB-DLRip 1080p
Формат: MKV
Видео кодек: H264
Видео: 5982Кбит/сек,1920х1080(16.9),в 25.000кадр/сек,AVC(PAL) (High@L4)(CABAC/3Ref Frames)
Аудио Кодек:AC3
Аудио #1:AC3 , 192 Kbps, 48.0 KHz, 6 ch- -NewStudio
Аудио #2:AC3 , 192 Kbps, 48.0 KHz, 6 ch- -AlexFilm
Аудио #3:AC3 , 192 Kbps, 48.0 KHz, 6 ch- -LostFilm
Аудио #4:AC3 , 192 Kbps, 48.0 KHz, 6 ch- -Jaskier
Аудио #5: AC3, 192 Kbps, 48.0 KHz,6 ch - - English--

Доп. информация:

Звуковая дорожка сделана путем наложения чистого голоса озвучивателей на центральный канал оригинальной дорожки. Качество идентично звуковой дорожке.
--

Список эпизодов сезона

01.-02. Избранный / Chosen
03. Ярость / Fury
04. Перебежчик / Changeling
05. Жнец / Reaper
06. Пикон / Pykon
07. Разлом / Breakline
08. Утопия / Utopia
09. Убежище / Safehold
10 Элькрис / Ellcrys
--

MediaInfo сезона

Общее
Уникальный идентификатор : 252385675491623429158827289424385183743 (0xBDDFB686EE22BB778FD8905D13C28FFF)
Полное имя : E:\К ИНО\Ф Э Н Т Е З И\Хроники Шаннары\The_Shannara_Chronicles_2016_S01_[NewStudio_AlexFilm_LostFilm_Jaskier]_N.B_WEB-DL_1080_4хRus_Eng\The_Shannara_Chronicles_2016_S01E01-E02_N.B_WEB-DL_1080p_4хRus_Eng.mkv
Формат : Matroska
Версия формата : Version 4 / Version 2
Размер файла : 3,97 Гбайт
Продолжительность : 1 ч. 21 м.
Режим общего битрейта : Переменный
Общий поток : 6945 Кбит/сек
Название фильма : The_Shannara_Chronicles_2016_S01E01-E02_N.B_WEB-DL_1080p_4хRus_Eng
Дата кодирования : UTC 2016-01-18 20:40:53
Программа кодирования : mkvmerge v8.8.0 ('Wind at my back') 64bit
Библиотека кодирования : libebml v1.3.3 + libmatroska v1.4.4
Видео
Идентификатор : 1
Формат : AVC
Формат/Информация : Advanced Video Codec
Профиль формата : High@L4
Параметр CABAC формата : Да
Параметр ReFrames формата : 3 кадра
Идентификатор кодека : V_MPEG4/ISO/AVC
Продолжительность : 1 ч. 21 м.
Вид битрейта : Переменный
Битрейт : 5982 Кбит/сек
Максимальный битрейт : 6142 Кбит/сек
Ширина : 1920 пикселей
Высота : 1080 пикселей
Соотношение сторон : 16:9
Режим частоты кадров : Постоянный
Частота кадров : 25,000 кадров/сек
Стандарт вещания : PAL
Цветовое пространство : YUV
Субдискретизация насыщенности : 4:2:0
Битовая глубина : 8 бит
Тип развёртки : Прогрессивная
Бит/(Пиксели*Кадры) : 0.115
Размер потока : 3,42 Гбайт (86%)
Язык : English
Default : Да
Forced : Нет
Цветовой диапазон : Full
Основные цвета : BT.709
Характеристики трансфера : BT.709
Коэффициенты матрицы : BT.709
Аудио #1
Идентификатор : 3
Формат : AC-3
Формат/Информация : Audio Coding 3
Расширение режима : CM (complete main)
Параметр Endianness формата : Big
Идентификатор кодека : A_AC3
Продолжительность : 1 ч. 21 м.
Вид битрейта : Постоянный
Битрейт : 192 Кбит/сек
Каналы : 6 каналов
Расположение каналов : Front: L C R, Side: L R, LFE
Частота : 48,0 КГц
Частота кадров : 31,250 кадров/сек (1536 spf)
Метод сжатия : С потерями
Размер потока : 112 Мбайт (3%)
Default : Да
Forced : Нет
Аудио #2
Идентификатор : 4
Формат : AC-3
Формат/Информация : Audio Coding 3
Расширение режима : CM (complete main)
Параметр Endianness формата : Big
Идентификатор кодека : A_AC3
Продолжительность : 1 ч. 21 м.
Вид битрейта : Постоянный
Битрейт : 192 Кбит/сек
Каналы : 6 каналов
Расположение каналов : Front: L C R, Side: L R, LFE
Частота : 48,0 КГц
Частота кадров : 31,250 кадров/сек (1536 spf)
Метод сжатия : С потерями
Размер потока : 112 Мбайт (3%)
Default : Нет
Forced : Нет
Аудио #3
Идентификатор : 5
Формат : AC-3
Формат/Информация : Audio Coding 3
Расширение режима : CM (complete main)
Параметр Endianness формата : Big
Идентификатор кодека : A_AC3
Продолжительность : 1 ч. 21 м.
Вид битрейта : Постоянный
Битрейт : 192 Кбит/сек
Каналы : 6 каналов
Расположение каналов : Front: L C R, Side: L R, LFE
Частота : 48,0 КГц
Частота кадров : 31,250 кадров/сек (1536 spf)
Метод сжатия : С потерями
Размер потока : 112 Мбайт (3%)
Default : Нет
Forced : Нет
Аудио #4
Идентификатор : 6
Формат : AC-3
Формат/Информация : Audio Coding 3
Расширение режима : CM (complete main)
Параметр Endianness формата : Big
Идентификатор кодека : A_AC3
Продолжительность : 1 ч. 21 м.
Вид битрейта : Постоянный
Битрейт : 192 Кбит/сек
Каналы : 6 каналов
Расположение каналов : Front: L C R, Side: L R, LFE
Частота : 48,0 КГц
Частота кадров : 31,250 кадров/сек (1536 spf)
Метод сжатия : С потерями
Размер потока : 112 Мбайт (3%)
Default : Нет
Forced : Нет
Аудио #5
Идентификатор : 7
Формат : AC-3
Формат/Информация : Audio Coding 3
Расширение режима : CM (complete main)
Параметр Endianness формата : Big
Идентификатор кодека : A_AC3
Продолжительность : 1 ч. 21 м.
Вид битрейта : Постоянный
Битрейт : 192 Кбит/сек
Каналы : 6 каналов
Расположение каналов : Front: L C R, Side: L R, LFE
Частота : 48,0 КГц
Частота кадров : 31,250 кадров/сек (1536 spf)
Метод сжатия : С потерями
Размер потока : 112 Мбайт (3%)
Default : Нет
Forced : Нет
Текст
Идентификатор : 2
Формат : UTF-8
Идентификатор кодека : S_TEXT/UTF8
Идентификатор кодека/Информация : UTF-8 Plain Text
Продолжительность : 1 ч. 21 м.
Битрейт : 50 бит/сек
Count of elements : 1179
Размер потока : 30,1 Кбайт (0%)
Заголовок : eng-sub
Язык : English
Default : Нет
Forced : Нет
--

Скриншоты

-- --Внимание! Раздача пополняется по мере выхода новых серий!--

Внимание! Раздача ведётся путём добавления новых серий!

Раздача ведётся путём добавления новых серий; при каждом добавлении создётся новый торрент.
Чтобы начать докачку новой серии, пользователям необходимо сделать следующее:
1. остановить скачивание,
2. удалить старый торрент у себя из клиента (старые серии удалять не надо),
3. скачать новый торрент и запустить его у себя в клиенте вместо старого, при этом указать клиенту путь в старую папку, куда и должно происходить скачивание новых серий.
Ваш клиент при этом должен произвести хеширование (проверку) старой папки (если не производит сам - помогите ему сделать это), и будет докачивать только те серии которых у вас ещё нет. Старые серии при этом не удаляются, а продолжают раздаваться!
Eсли вы уже удалили старые серии, то предотвратить повторную закачку старых серий можно, отжав галочку в соответсвующих местах при запуске нового торрента. По возможности, желательно не удалять старые серии как можно дольше, чтобы релизёр не столько продолжал раздавать старые серии, а смог сконцентрироваться на новых.
Совет для тех, кто не хочет ждать перехеширования:
Создайте ещё одну папку рядом с папкой сериала (рядом, а не в ней!!!). Каждую новую серию после удачной загрузки копируйте в новую папку так чтобы ваша основная папка всегда была пуста. Когда ваш новый торрент предложит вам закачать все файлы, выберете только последнюю. Для сидирования же укажите адрес новой папки.
Как закачать отдельный файл из торрента или докачать ранее пропущенные файлы торрента!

Как закачать отдельный файл

1. Открыть торрент
2. Снять галки с тех файлов торрента, которые мы не хотим закачивать. Оставляем только на нужных нам файлах (файле).
3. Нажать О.К.
В клиенте utorrent
Инструкция
1) Открыть торрент

2) Снять галки с тех файлов торрента, которые мы не хотим закачивать:
* либо вручную, снимая с каждого файла галку( скрин №1)
* либо, нажав кнопку "Снять метки (Select None)", сняв сразу со всех файлов(скрин №2)
№1

№2

Оставляем только на нужных нам файлах (файле).

3)Нажать О.К
-- -- --Внимание!!! 04.03. 2016. РАЗДАЧА ОБНОВЛЕНА.ОБНОВИТЕ ТОРЕНТ ФАЙЛ.ПРИЯТНОГО ПРОСМОТРА . ФИНАЛ СЕЗОНА.--Релиз от: Nikolai.Baranov & PIRATIYA -- -- -- --


Последний раз редактировалось: Враг Нароода (2016-03-04 16:13), всего редактировалось 7 раз(а)
[Профиль] [ЛС]

Враг Нароода ®

Стаж: 1 год 8 месяцев

Сообщений: 112



Награды: 2 (Подробнее)

Mega Seeder 1 (Количество: 1) За внесенный вклад в развитие сайта (Количество: 1)
Торрент-статистика

Создавать темы 31-Янв-2016 16:33 (спустя 20 дней)

[Цитировать]

31.01.2016.ДОБАВЛЕНЫ 3 АУДИО ДОРОЖКИ 5 СЕРИИ: AlexFilm , LostFilm , Jaskier
[Профиль] [ЛС]
Показать сообщения:    

Текущее время: Сегодня 13:48

Часовой пояс: GMT



Вы не можете начинать темы
Вы не можете отвечать на сообщения
Вы не можете редактировать свои сообщения
Вы не можете удалять свои сообщения
Вы не можете голосовать в опросах
Вы не можете прикреплять файлы к сообщениям
Вы не можете скачивать файлы