Хроники Франкенштейна / The Frankenstein Chronicles [S01] (2015) HDTVRip | Jaskier

 
Автор Сообщение

достали все ®

Пол:

Стаж: 1 год 8 месяцев

Сообщений: 6581



Награды: 12 (Подробнее)

За внесенный вклад в развитие сайта (Количество: 1) Mega Seeder 3 (Количество: 1) Top Releaser 2 (Количество: 1)
Торрент-статистика

Создавать темы 28-Дек-2015 09:53

[Цитировать]

Информация о фильме
Название: Хроники Франкенштейна
Оригинальное название: The Frankenstein Chronicles
Год выхода: 2015
Жанр: Криминал, драма, триллер, детектив
Режиссер: Бенжамин Росс / Benjamin Ross
В ролях: Люси Миллер, Шон Бин, Шон Блэйни. Ричи Кэмпелл, Чарли Крид-Майлз, Патрик Фицсимонс, Джоэль Гильман, Стюарт Грэхэм, Ванесса Кирби ...
О фильме:
Инспектор полиции Джон Марлотт разыскивает маньяка, возомнившего себя Франкенштейном. Злодей воплощает действия книжного доктора в реальность — создает монстра из частей человеческих тел. Марлотт, обнаруживший одно из ужасных созданий убийцы, вынужден работать тайно и в одиночку бродить по Лондону 19-го века в поисках чудовища.

Страна: Великобритания
Студия: Rainmark Films
Продолжительность: 00:46:57
Перевод: Профессиональный (многоголосый закадровый) | Jaskier
Файл
Кодек: XviD
Качество: HDTVRip
Видео: MPEG4, XviD, 720x400 (16:9), 25.000 fps, 1 341 Kbps (0.186 bit/pixel)
Звук:
Аудио #1: MP3, 48.0 KHz, 2 ch, 128 Kbps, CBR [rus]
Аудио #2: MP3, 48.0 KHz, 2 ch, 128 Kbps, CBR [eng]
Субтитры: Нет

MediaInfo

General
Complete name : The.Frankenstein.Chronicles.s01e06.HDTVRip.Jaskier.avi
Format : AVI
Format/Info : Audio Video Interleave
File size : 550 MiB
Duration : 47mn 42s
Overall bit rate : 1 611 Kbps
Writing application : VirtualDubModRus 1.5.10.2 (build 2542/release)
Writing library : VirtualDubMod build 2542/release
Video
ID : 0
Format : MPEG-4 Visual
Format profile : Advanced Simple@L5
Format settings, BVOP : 1
Format settings, QPel : No
Format settings, GMC : No warppoints
Format settings, Matrix : Default (H.263)
Codec ID : XVID
Codec ID/Hint : XviD
Duration : 47mn 42s
Bit rate : 1 341 Kbps
Width : 720 pixels
Height : 400 pixels
Display aspect ratio : 16:9
Frame rate : 25.000 fps
Color space : YUV
Chroma subsampling : 4:2:0
Bit depth : 8 bits
Scan type : Progressive
Compression mode : Lossy
Bits/(Pixel*Frame) : 0.186
Stream size : 458 MiB (83%)
Writing library : XviD 1.2.1 (UTC 2008-12-04)
Audio #1
ID : 1
Format : MPEG Audio
Format version : Version 1
Format profile : Layer 3
Mode : Joint stereo
Mode extension : MS Stereo
Codec ID : 55
Codec ID/Hint : MP3
Duration : 47mn 42s
Bit rate mode : Constant
Bit rate : 128 Kbps
Channel(s) : 2 channels
Sampling rate : 48.0 KHz
Compression mode : Lossy
Stream size : 43.7 MiB (8%)
Alignment : Aligned on interleaves
Interleave, duration : 40 ms (1.00 video frame)
Interleave, preload duration : 504 ms
Writing library : LAME3.99r
Encoding settings : -m j -V 4 -q 2 -lowpass 17 -b 128
Audio #2
ID : 2
Format : MPEG Audio
Format version : Version 1
Format profile : Layer 3
Mode : Joint stereo
Mode extension : MS Stereo
Codec ID : 55
Codec ID/Hint : MP3
Duration : 47mn 42s
Bit rate mode : Constant
Bit rate : 128 Kbps
Channel(s) : 2 channels
Sampling rate : 48.0 KHz
Compression mode : Lossy
Stream size : 43.7 MiB (8%)
Alignment : Aligned on interleaves
Interleave, duration : 40 ms (1.00 video frame)
Interleave, preload duration : 504 ms
Writing library : LAME3.99r
Encoding settings : -m j -V 4 -q 2 -lowpass 17 -b 128
[Профиль] [ЛС]
Показать сообщения:    

Текущее время: Сегодня 22:22

Часовой пояс: GMT



Вы не можете начинать темы
Вы не можете отвечать на сообщения
Вы не можете редактировать свои сообщения
Вы не можете удалять свои сообщения
Вы не можете голосовать в опросах
Вы не можете прикреплять файлы к сообщениям
Вы не можете скачивать файлы