Хроники призрачного племени / Jiu ceng yao ta (2015) BDRip 720p | L2

 
Автор Сообщение

достали все ®

Пол:

Стаж: 1 год 8 месяцев

Сообщений: 6577



Награды: 12 (Подробнее)

Top Releaser 2 (Количество: 1) Mega Releaser 3 (Количество: 1) Mega Seeder 5 (Количество: 1)
Торрент-статистика

Создавать темы 28-Май-2016 08:25

[Цитировать]

Хроники призрачного племени / Девятиэтажная демоническая башня / Chronicles of the Ghostly Tribe / Jiu ceng yao ta
Страна: Китай
Производство: China Film Co., Chuan Films
Год выпуска: 2015
Жанр: приключения, фэнтези
Продолжительность: 01:58:14
Режиссер: Чуань Лу
Авторы сценария: Чуань Лу, Бобби Рот, Ник Рот
В ролях: Марк Чао, Чэнь Цзинь, Ли Фэн, Чен Ли, Гуанджи Ли, Янь Тан, Ридиан Вон, Дешун Ванг, Ван Цин-сян
Описание: В 1979 году в одной из пещер горной цепи Куньлунь были найдены кости таинственного существа. Ху Байи снаряжает экспедицию в глубины этих гор, чтобы отыскать ещё больше скрытых палеонтологических реликвий. Спустившись вниз, исследователи обнаруживают загадочный город, скрытый под толщей горных пород. Город некогда принадлежал могучей цивилизации, которая обладала великой силой и знала тайны жизни и смерти. Радость столь дивной находки омрачили ужасающие существа, напавшие на группу исследователей...

Перевод: Любительский (двухголосый, закадровый) | GREEN TEA (Айя Сона и Макс Коллапс)
Субтитры: английские-Качество: BDRip 720p
Формат: МКV
Видео кодек: AVC
Аудио кодек: АС3
Видео: 1280x536 (2.40:1), 23.976 fps, MPEG-4 AVC ~5 114 kbps avg, 0.311 bit/pixel
Аудио №1: 48.0 kHz, AC3 Dolby Digital, 2 ch, ~192 kbps | RUS
Аудио №2: 48.0 kHz, AC3 Dolby Digital, 6 ch, ~640 kbps | CHI
Формат субтитров: UTF-8 Plain Text
Дата премьеры (мир): 30 сентября 2015

Media Info

General
Unique ID : 226687693768378076863352495398886994819 (0xAA8A7634EFF821CF9854E3BEF73A7383)
Complete name : Хроники Призрачного племени.2015.DVO.720p.BluRay.x264-HDChina.mkv
Format : Matroska
Format version : Version 4 / Version 2
File size : 5.00 GiB
Duration : 1h 58mn
Overall bit rate : 6 067 Kbps
Movie name : Chronicles of the Ghostly Tribe [2015] [720p] DVO
Encoded date : UTC 2016-05-12 09:44:29
Writing application : mkvmerge v7.8.0 ('River Man') 32bit built on Mar 27 2015 16:18:02
Writing library : libebml v1.3.1 + libmatroska v1.4.2
Video
ID : 1
Format : AVC
Format/Info : Advanced Video Codec
Format profile : High@L4.1
Format settings, CABAC : Yes
Format settings, ReFrames : 12 frames
Codec ID : V_MPEG4/ISO/AVC
Duration : 1h 58mn
Bit rate : 5 114 Kbps
Width : 1 280 pixels
Height : 536 pixels
Display aspect ratio : 2.40:1
Frame rate mode : Constant
Frame rate : 23.976 fps
Color space : YUV
Chroma subsampling : 4:2:0
Bit depth : 8 bits
Scan type : Progressive
Bits/(Pixel*Frame) : 0.311
Stream size : 4.22 GiB (84%)
Title : profile.php?mode=viewprofile&u=22488948 || RG Orient Extreme Films
Writing library : x264 core 148 r2597 e86f3a1
Encoding settings : cabac=1 / ref=12 / deblock=1:-3:-3 / analyse=0x3:0x113 / me=umh / subme=11 / psy=1 / psy_rd=1.00:0.00 / mixed_ref=1 / me_range=32 / chroma_me=1 / trellis=2 / 8x8dct=1 / cqm=0 / deadzone=21,11 / fast_pskip=0 / chroma_qp_offset=-2 / threads=12 / lookahead_threads=2 / sliced_threads=0 / nr=0 / decimate=0 / interlaced=0 / bluray_compat=0 / constrained_intra=0 / bframes=9 / b_pyramid=2 / b_adapt=2 / b_bias=0 / direct=3 / weightb=1 / open_gop=0 / weightp=2 / keyint=240 / keyint_min=24 / scenecut=40 / intra_refresh=0 / rc_lookahead=40 / rc=crf / mbtree=0 / crf=16.5 / qcomp=0.70 / qpmin=0 / qpmax=69 / qpstep=4 / vbv_maxrate=40000 / vbv_bufsize=30000 / crf_max=0.0 / nal_hrd=none / filler=0 / ip_ratio=1.20 / pb_ratio=1.20 / aq=3:0.85
Language : Chinese
Default : Yes
Forced : No
Audio #1
ID : 2
Format : AC-3
Format/Info : Audio Coding 3
Mode extension : CM (complete main)
Format settings, Endianness : Big
Codec ID : A_AC3
Duration : 1h 58mn
Bit rate mode : Constant
Bit rate : 192 Kbps
Channel(s) : 2 channels
Channel positions : Front: L R
Sampling rate : 48.0 KHz
Bit depth : 16 bits
Compression mode : Lossy
Stream size : 162 MiB (3%)
Title : DVO [GREEN TEA]
Language : Russian
Default : Yes
Forced : No
Audio #2
ID : 3
Format : AC-3
Format/Info : Audio Coding 3
Mode extension : CM (complete main)
Format settings, Endianness : Big
Codec ID : A_AC3
Duration : 1h 58mn
Bit rate mode : Constant
Bit rate : 640 Kbps
Channel(s) : 6 channels
Channel positions : Front: L C R, Side: L R, LFE
Sampling rate : 48.0 KHz
Bit depth : 16 bits
Compression mode : Lossy
Stream size : 540 MiB (11%)
Language : Chinese
Default : No
Forced : No
Text
ID : 4
Format : UTF-8
Codec ID : S_TEXT/UTF8
Codec ID/Info : UTF-8 Plain Text
Language : English
Default : No
Forced : No
Menu
00:00:00.000 : en:00:00:00.000
00:08:30.009 : en:00:08:30.009
00:16:53.887 : en:00:16:53.887
00:24:00.147 : en:00:24:00.147
00:29:18.882 : en:00:29:18.882
00:36:43.075 : en:00:36:43.075
00:41:13.429 : en:00:41:13.429
00:46:48.847 : en:00:46:48.847
00:52:21.680 : en:00:52:21.680
00:56:41.272 : en:00:56:41.272
01:02:39.088 : en:01:02:39.088
01:06:58.639 : en:01:06:58.639
01:10:26.180 : en:01:10:26.180
01:14:17.077 : en:01:14:17.077
01:20:15.602 : en:01:20:15.602
01:24:58.301 : en:01:24:58.301
01:31:32.236 : en:01:31:32.236
01:37:39.061 : en:01:37:39.061
01:42:17.464 : en:01:42:17.464
01:49:58.008 : en:01:49:58.008

Скриншоты

[Профиль] [ЛС]
Показать сообщения:    

Текущее время: Сегодня 08:13

Часовой пояс: GMT



Вы не можете начинать темы
Вы не можете отвечать на сообщения
Вы не можете редактировать свои сообщения
Вы не можете удалять свои сообщения
Вы не можете голосовать в опросах
Вы не можете прикреплять файлы к сообщениям
Вы не можете скачивать файлы