Хроники ломбарда (2014) SATRip (серии 1-10 из 30) (обновляемая)

 
Автор Сообщение

sergej644 ®

Пол:

Стаж: 4 года 11 месяцев

Сообщений: 6041

Откуда: Soviet Union



Награды: Нет

Торрент-статистика

Создавать темы 08-Дек-2014 22:45

[Цитировать]

-Хроники ломбарда (2014)- Год выпуска: 2014
Жанр: Экшн, Криминал, Драма, Комедия
Производство: ООО "CONNECT FILM"
Режиссер: Денис Суворов, Иван Шахнозаров
Актеры: Валерий Новиков, Евгения Чиркова, Юлия Лобова, Иван Руденко
Описание фильма: Интригующий сериал, в котором главную роль играют вещи, затягивающие главных героев в самые немыслимые передряги. Ведь иногда простая, на первый взгляд, безделушка может показать настоящую стоимость любви и дружбы. Каждый день в ломбарде происходит очередное таинство — появление уникальной вещицы. Только взгляд опытного скупщика способен выявить ее из сотен других предметов. В каждой серии вас ждет полное погружение в мир ценных вещей, интриг и подстав! Ведь в бизнесе от них никуда не спрятаться…

Премьера в России: 24 ноября 2014
Продолжительность: ~00:23:00 серия
Качество видео: SATRip
Формат: AVI
Видео кодек: XviD
Битрейт видео: ~1500 kbps
Размер кадра: 720x400 (16:9)
Аудио: МР3, 48 kHz, 2 ch, ~128 kbps
Релиз группа: RiperAM

Благодарности:

Большое СПАСИБО человеку под ником Просто_Крол за предоставление исходника
RiperAM

MediaInfo:

Общее
Полное имя : D:\ХРОНИКИ ЛОМБАРДА\Hroniki lombarda.01.avi
Формат : AVI
Формат/Информация : Audio Video Interleave
Размер файла : 272 Мбайт
Продолжительность : 23 м.
Общий поток : 1637 Кбит/сек
Программа кодирования : VirtualDubMod 1.5.10.3 | www.virtualdub-fr.org || (build 2550/release)
Библиотека кодирования : VirtualDubMod build 2550/release
Видео
Идентификатор : 0
Формат : MPEG-4 Visual
Профиль формата : Advanced Simple@L5
Параметр BVOP формата : 2
Параметр QPel формата : Нет
Параметр GMC формата : Без точки перехода
Параметр матрицы формата : Default (MPEG)
Идентификатор кодека : XVID
Идентификатор кодека/Подсказка : XviD
Продолжительность : 23 м.
Битрейт : 1500 Кбит/сек
Ширина : 720 пикселей
Высота : 400 пикселей
Соотношение сторон : 16:9
Частота кадров : 25,000 кадров/сек
Цветовое пространство : YUV
Субдискретизация насыщенности : 4:2:0
Битовая глубина : 8 бит
Тип развёртки : Прогрессивная
Метод сжатия : С потерями
Бит/(Пиксели*Кадры) : 0.208
Размер потока : 249 Мбайт (92%)
Библиотека кодирования : XviD 1.2.1 (UTC 2008-12-04)
Аудио
Идентификатор : 1
Формат : MPEG Audio
Версия формата : Version 1
Профиль формата : Layer 3
Идентификатор кодека : 55
Идентификатор кодека/Подсказка : MP3
Продолжительность : 23 м.
Вид битрейта : Постоянный
Битрейт : 128 Кбит/сек
Каналы : 2 канала
Частота : 48,0 КГц
Метод сжатия : С потерями
Размер потока : 21,3 Мбайт (8%)
Выравнивание : Соединение по промежуткам
Продолжительность промежутка : 40 мс. (1,00 видеокадр)
Время предзагрузки промежутка : 504 мс.
Библиотека кодирования : LAME3.99r
Настройки программы : -m s -V 4 -q 2 -lowpass 17 -b 128

Внимание! Раздача ведётся путём добавления новых серий

Внимание! Раздача ведётся путём добавления новых серий; при каждом добавлении создаётся новый торрент.
Чтобы начать докачку новой серии, пользователям необходимо сделать следующее:
1. Остановить скачивание;
2. Удалить старый торрент у себя из клиента (старые серии удалять не надо);
3. Скачать новый торрент и запустить его у себя в клиенте вместо старого, при этом указать клиенту путь в старую папку куда и должно происходить скачивание новых серий. Ваш клиент при этом должен произвести хеширование (проверку) старой папки и будет докачивать только те серии, которых у вас ещё нет. Старые серии при этом не удаляются, а продолжают раздаваться! Eсли вы уже удалили старые серии, то предотвратить повторную закачку старых серий можно, отжав галочку в соответствующих местах при запуске нового торрента.
Скриншоты: Время раздачи: 24/7 до первых 5 скачавших
[Профиль] [ЛС]
Показать сообщения:    

Текущее время: Сегодня 18:59

Часовой пояс: GMT



Вы не можете начинать темы
Вы не можете отвечать на сообщения
Вы не можете редактировать свои сообщения
Вы не можете удалять свои сообщения
Вы не можете голосовать в опросах
Вы не можете прикреплять файлы к сообщениям
Вы не можете скачивать файлы