Хроники дождя / Тёмные поля / The Rain / Dark Fields (Дуглас Шульц / Douglas Schulze) [2009, США, ужасы, DVDRip] VO + Sub Rus + Original Eng

 
Автор Сообщение

TorrentFilm ®

Пол:

Стаж: 2 года

Сообщений: 7741



Награды: Нет

Торрент-статистика

Создавать темы 14-Май-2015 00:03

[Цитировать]

Хроники дождя / Тёмные поля / The Rain / Dark Fields
Страна: США
Жанр: ужасы
Год выпуска: 2009
Продолжительность: 01:50:49
Перевод: Одноголосый закадровый
Cубтитры: русские, английские
Оригинальная аудиодорожка: английский
Режиссер: Дуглас Шульц / Douglas Schulze
В ролях: Дэвид Кэррадайн (Кэррадин) / David Carradine, Ричард Линч / Richard Lynch, Ди Уоллес-Стоун / Dee Wallace-Stone, Кристофер Бонди / Christopher Bondy, Дерек Брэндон / Derek Brandon, Дэвид Дж.Б. Браун / David G.B. Brown, Джеймс Ховард Карр / James Howard Carr, Паула Чикконе / Paula Ciccone, Колин Креншоу / Colin Crenshaw
Описание: В XIX веке на фермерский посёлок Персеверанс обрушилась страшная засуха, грозившая на корню погубить весь урожай. Отчаявшееся население обратилось за помощью к индейскому шаману, которому удалось призвать на поля долгожданный ливень. Однако, помня о злодействах бледнолицых захватчиков, шаман заодно возложил на жителей проклятье в виде неведомой болезни. Смертоносная зараза иссушала тело и исцелялась лишь дождём, вызвать который отныне можно было, только регулярно принося в жертву собственных детей...
Сэмпл: http://multi-up.com/1046857
Качество видео: DVDRip
Формат видео: AVI
Видео: 720x400 (1.80:1), 23.976 fps, XviD build 46 ~1389 kbps avg, 0.20 bit/pixel
Аудио 1: 48 kHz, AC3 Dolby Digital, 2/0 (L,R) ch, ~224.00 kbps avg (Русский)
Аудио 2: 48 kHz, AC3 Dolby Digital, 2/0 (L,R) ch, ~224.00 kbps avg (Английский)
Формат субтитров: softsub (SRT)
Доп. информация о субтитрах: Русские внешние (Thoma_), английские (easytobeaman)

MediaInfo

Общее
Уникальный идентификатор : 185998173349155935609056899447002255338 (0x8BEDF1F65CDB08A99DDEFE9230C04FEA)
Полное имя : F:\С моей озвучкой\Хроники дождя\Dark Fields 2009 DVDRip DXVA AC3.mkv
Формат : Matroska
Версия формата : Version 4 / Version 2
Размер файла : 1,57 Гбайт
Продолжительность : 1 ч. 50 м.
Общий поток : 2034 Кбит/сек
Дата кодирования : UTC 2015-05-04 21:10:27
Программа кодирования : mkvmerge v6.1.0 ('Old Devil') built on Mar 4 2013 09:10:42
Библиотека кодирования : libebml v1.3.0 + libmatroska v1.4.0
Видео
Идентификатор : 1
Формат : AVC
Формат/Информация : Advanced Video Codec
Профиль формата : High@L4.1
Параметр CABAC формата : Да
Параметр ReFrames формата : 15 кадров
Идентификатор кодека : V_MPEG4/ISO/AVC
Продолжительность : 1 ч. 50 м.
Битрейт : 1585 Кбит/сек
Ширина : 720 пикселей
Высота : 400 пикселей
Соотношение сторон : 16:9
Режим частоты кадров : Постоянный
Частота кадров : 23,976 кадра/сек
Цветовое пространство : YUV
Субдискретизация насыщенности : 4:2:0
Битовая глубина : 8 бит
Тип развёртки : Прогрессивная
Бит/(Пиксели*Кадры) : 0.230
Размер потока : 1,20 Гбайт (76%)
Библиотека кодирования : x264 core 114 r1924 08d04a4
Настройки программы : cabac=1 / ref=16 / deblock=1:0:0 / analyse=0x3:0x133 / me=umh / subme=9 / psy=1 / psy_rd=1.00:0.25 / mixed_ref=1 / me_range=48 / chroma_me=1 / trellis=2 / 8x8dct=1 / cqm=0 / deadzone=21,11 / fast_pskip=0 / chroma_qp_offset=-4 / threads=9 / sliced_threads=0 / nr=0 / decimate=0 / interlaced=0 / constrained_intra=0 / bframes=16 / b_pyramid=1 / b_adapt=2 / b_bias=0 / direct=3 / weightb=1 / open_gop=0 / weightp=2 / keyint=250 / keyint_min=23 / scenecut=40 / intra_refresh=0 / rc_lookahead=60 / rc=2pass / mbtree=1 / bitrate=1585 / ratetol=1.0 / qcomp=0.60 / qpmin=0 / qpmax=69 / qpstep=4 / cplxblur=20.0 / qblur=0.5 / vbv_maxrate=50000 / vbv_bufsize=50000 / nal_hrd=none / ip_ratio=1.40 / aq=1:1.10
Default : Да
Forced : Нет
Основные цвета : BT.709
Характеристики трансфера : BT.709
Коэффициенты матрицы : BT.709
Аудио #1
Идентификатор : 2
Формат : AC-3
Формат/Информация : Audio Coding 3
Расширение режима : CM (complete main)
Параметр Endianness формата : Big
Идентификатор кодека : A_AC3
Продолжительность : 1 ч. 50 м.
Вид битрейта : Постоянный
Битрейт : 224 Кбит/сек
Каналы : 2 канала
Расположение каналов : Front: L R
Частота : 48,0 КГц
Битовая глубина : 16 бит
Метод сжатия : С потерями
Размер потока : 178 Мбайт (11%)
Язык : Russian
Default : Да
Forced : Нет
Аудио #2
Идентификатор : 3
Формат : AC-3
Формат/Информация : Audio Coding 3
Расширение режима : CM (complete main)
Параметр Endianness формата : Big
Идентификатор кодека : A_AC3
Продолжительность : 1 ч. 50 м.
Вид битрейта : Постоянный
Битрейт : 224 Кбит/сек
Каналы : 2 канала
Расположение каналов : Front: L R
Частота : 48,0 КГц
Битовая глубина : 16 бит
Метод сжатия : С потерями
Размер потока : 178 Мбайт (11%)
Язык : English
Default : Нет
Forced : Нет

Скриншоты

[Профиль] [ЛС]

Создавать темы 06-Авг-2015 22:31 (спустя 2 месяца 23 дня)

Топик был перенесен из форума Фильмы до 2014 года в форум Фильмы до 2012 года
sergej644
 

Создавать темы 12-Июн-2016 08:49 (спустя 1 год)

Топик был перенесен из форума Фильмы 2011 года в форум Фильмы 2009 года
Russian Mafia
 
Показать сообщения:    

Текущее время: Сегодня 06:10

Часовой пояс: GMT



Вы не можете начинать темы
Вы не можете отвечать на сообщения
Вы не можете редактировать свои сообщения
Вы не можете удалять свои сообщения
Вы не можете голосовать в опросах
Вы не можете прикреплять файлы к сообщениям
Вы не можете скачивать файлы