Хранитель Луны / Mune, le gardien de la lune (2014) BDRip 720p | Лицензия

 
Автор Сообщение

достали все ®

Пол:

Стаж: 1 год 8 месяцев

Сообщений: 6565



Награды: 12 (Подробнее)

Mega Releaser 3 (Количество: 1) За внесенный вклад в развитие сайта (Количество: 1) Top Releaser 4 (Количество: 1)
Торрент-статистика

Создавать темы 30-Окт-2015 04:51

[Цитировать]

Информация о фильме
Название: Хранитель Луны
Оригинальное название: Mune, le gardien de la lune
Год выхода: 2014
Жанр: мультфильм
Режиссер: Александр Эбоян, Бенуа Филиппон
В ролях: Омар Си, Изиа Ижлен, Майкл Грегорио, Шафик Ахмад, Бенуа Аллемане, Шеннон Арчи, Федор Аткин, Джошуа Дж. Баллард, Дэмиен Буассо, Эммануэль Кюртиль
О фильме: На диковинной планете, где смена дня и ночи осуществляется вручную, юного фавна Мьюна неожиданно избирают хранителем Луны. Но к своему ужасу, он почти сразу теряет ее! Воспользовавшись этим, царь подземного мира Некрос крадет и гасит Солнце. Теперь, чтобы спасти планету, Мьюн вместе с отважной девочкой из воска Глим и заносчивым Сохоном, хранителем Солнца, должны отправиться в удивительное и опасное путешествие.

Выпущено: Onyx Films, Orange Studio, Kinology
Продолжительность: 01:21:27
Перевод: Дублированный (лицензия)
Файл
Кодек: x264
Качество: BDRip (источник: Blu-ray Disc)
Видео: 1280x536 (2,40:1), 25 fps, 2100 kbps
Аудио: AC-3, 6 ch, 448 kbps
Скачать: сэмпл
Скриншоты

MI

Общее
Уникальный идентификатор : 208786387338052084419804420007606182564 (0x9D12CBA8368F9FD9814B4835ECC162A4)
Полное имя : Mune.le.gardien.de.la.lune.2014.BDRip.720p.Rus.mkv
Формат : Matroska
Версия формата : Version 2
Размер файла : 1,45 Гбайт
Продолжительность : 1 ч. 21 м.
Общий поток : 2549 Кбит/сек
Название фильма : Хранитель Луны / Mune, le gardien de la lune (2014)
Дата кодирования : UTC 2015-10-29 16:54:33
Программа кодирования : mkvmerge v5.8.0 ('No Sleep / Pillow') built on Sep 2 2012 15:37:04
Библиотека кодирования : libebml v1.2.3 + libmatroska v1.3.0
Видео
Идентификатор : 1
Формат : AVC
Формат/Информация : Advanced Video Codec
Профиль формата : High@L4.1
Параметр CABAC формата : Да
Параметр ReFrames формата : 9 кадров
Идентификатор кодека : V_MPEG4/ISO/AVC
Продолжительность : 1 ч. 21 м.
Битрейт : 2100 Кбит/сек
Ширина : 1280 пикселей
Высота : 536 пикселей
Соотношение сторон : 2,40:1
Режим частоты кадров : Постоянный
Частота кадров : 25,000 кадров/сек
Цветовое пространство : YUV
Субдискретизация насыщенности : 4:2:0
Битовая глубина : 8 бит
Тип развёртки : Прогрессивная
Бит/(Пиксели*Кадры) : 0.122
Размер потока : 1,17 Гбайт (80%)
Заголовок : Release by AlexKa
Библиотека кодирования : x264 core 148 r2638 7599210
Настройки программы : cabac=1 / ref=9 / deblock=1:0:0 / analyse=0x3:0x133 / me=umh / subme=11 / psy=1 / psy_rd=1.00:0.00 / mixed_ref=1 / me_range=32 / chroma_me=1 / trellis=2 / 8x8dct=1 / cqm=0 / deadzone=21,11 / fast_pskip=0 / chroma_qp_offset=-2 / threads=12 / lookahead_threads=2 / sliced_threads=0 / nr=0 / decimate=0 / interlaced=0 / bluray_compat=0 / constrained_intra=0 / bframes=9 / b_pyramid=2 / b_adapt=2 / b_bias=0 / direct=3 / weightb=1 / open_gop=0 / weightp=2 / keyint=250 / keyint_min=25 / scenecut=40 / intra_refresh=0 / rc=2pass / mbtree=0 / bitrate=2100 / ratetol=1.0 / qcomp=0.60 / qpmin=0 / qpmax=69 / qpstep=4 / cplxblur=20.0 / qblur=0.5 / ip_ratio=1.40 / pb_ratio=1.30 / aq=1:1.00
Язык : French
Аудио
Идентификатор : 2
Формат : AC-3
Формат/Информация : Audio Coding 3
Расширение режима : CM (complete main)
Параметр Endianness формата : Big
Идентификатор кодека : A_AC3
Продолжительность : 1 ч. 21 м.
Вид битрейта : Постоянный
Битрейт : 448 Кбит/сек
Каналы : 6 каналов
Расположение каналов : Front: L C R, Side: L R, LFE
Частота : 48,0 КГц
Метод сжатия : С потерями
Размер потока : 261 Мбайт (18%)
Заголовок : Rus
Язык : Russian
Меню
00:00:00.000 : :Chapter 01
00:05:54.159 : :Chapter 02
00:13:02.640 : :Chapter 03
00:17:54.560 : :Chapter 04
00:24:42.000 : :Chapter 05
00:30:02.960 : :Chapter 06
00:34:33.560 : :Chapter 07
00:42:25.960 : :Chapter 08
00:47:45.000 : :Chapter 09
00:53:42.760 : :Chapter 10
01:00:16.640 : :Chapter 11
01:09:48.000 : :Chapter 12
01:21:26.960 : :Chapter 13

x264

x264 [info]: frame I:1001 Avg QP:12.51 size: 94306
x264 [info]: frame P:28087 Avg QP:16.00 size: 22622
x264 [info]: frame B:93086 Avg QP:17.93 size: 5935
x264 [info]: consecutive B-frames: 2.9% 2.8% 8.6% 25.8% 16.4% 34.6% 4.8% 1.9% 1.5% 0.8%
[Профиль] [ЛС]
Показать сообщения:    

Текущее время: Сегодня 10:24

Часовой пояс: GMT



Вы не можете начинать темы
Вы не можете отвечать на сообщения
Вы не можете редактировать свои сообщения
Вы не можете удалять свои сообщения
Вы не можете голосовать в опросах
Вы не можете прикреплять файлы к сообщениям
Вы не можете скачивать файлы