Хранилище 13 / Warehouse 13 [S01-05] (2009-2014) WEB-DLRip | LostFilm

 
Автор Сообщение

достали все ®

Пол:

Стаж: 1 год 8 месяцев

Сообщений: 6545



Награды: 12 (Подробнее)

Mega Seeder 5 (Количество: 1) Top Releaser 2 (Количество: 1) Top Releaser 3 (Количество: 1)
Торрент-статистика

Создавать темы 28-Авг-2016 14:14

[Цитировать]

Информация о фильме
Название: Хранилище 13
Оригинальное название: Warehouse 13
Год выхода: 2009
Жанр: Фантастика, драма, детектив
Режиссер: Тауния Маккирнан, Константин Макрис, Стивен Серджик
В ролях: Эдди МакКлинток, Джоэнн Келли, Сол Рубинек, Дженелл Уильямс, Эллисон Скальотти, Си Си Эйч Паундер, Саймон Рейнольдс, Аарон Эшмор, Джейми Мюррэй, Саша Ройз
О фильме:
После спасения жизни президента двух агентов Секретной службы переводят на секретный объект в штате Южная Дакота. Там содержатся сверхъестественные вещи, которые правительство США собирало в течение столетий. Их новое назначение — вернуть часть пропавших вещей и расследовать сообщения о новых.

Страна: США
Студия: SyFy, Universal Cable Productions
Продолжительность: ~ 00:43:00
Перевод: Профессиональный (многоголосый, закадровый) [LostFilm]
Файл
Качество: WEB-DLRip
Формат: AVI
Видео: 704x400 (1.76:1), 23.976 fps, XviD build 73 ~1799 kbps avg, 0.27 bit/pixel
Аудио: 48 kHz, AC3 Dolby Digital, 3/2 (L,C,R,l,r) + LFE ch, ~384 kbps
Субтитры: отсутствуют
Релиз от: All Films by Teko

MI

Формат : AVI
Формат/Информация : Audio Video Interleave
Размер файла : 1,34 Гбайт
Продолжительность : 1 ч. 27 м.
Общий поток : 2193 Кбит/сек
Программа кодирования : VirtualDubMod 1.5.10.3 | www.virtualdub-fr.org || (build 2550/release)
Библиотека кодирования : VirtualDubMod build 2550/release
Видео
Идентификатор : 0
Формат : MPEG-4 Visual
Профиль формата : Advanced Simple@L5
Параметр BVOP формата : 2
Параметр QPel формата : Нет
Параметр GMC формата : Без точки перехода
Параметр матрицы формата : Выборочная
Идентификатор кодека : XVID
Идентификатор кодека/Подсказка : XviD
Продолжительность : 1 ч. 27 м.
Битрейт : 1800 Кбит/сек
Ширина : 704 пикселя
Высота : 400 пикселей
Соотношение сторон : 16:9
Частота кадров : 23,976 кадра/сек
Цветовое пространство : YUV
Субдискретизация насыщенности : 4:2:0
Битовая глубина : 8 бит
Тип развёртки : Прогрессивная
Метод сжатия : С потерями
Бит/(Пиксели*Кадры) : 0.267
Размер потока : 1,10 Гбайт (82%)
Библиотека кодирования : XviD 73
Аудио
Идентификатор : 1
Формат : AC-3
Формат/Информация : Audio Coding 3
Расширение режима : CM (complete main)
Параметр Endianness формата : Big
Идентификатор кодека : 2000
Продолжительность : 1 ч. 27 м.
Вид битрейта : Постоянный
Битрейт : 384 Кбит/сек
Каналы : 6 каналов
Расположение каналов : Front: L C R, Side: L R, LFE
Частота : 48,0 КГц
Битовая глубина : 16 бит
Метод сжатия : С потерями
Размер потока : 241 Мбайт (18%)
Выравнивание : Разделение по промежуткам
Продолжительность промежутка : 42 мс. (1,00 видеокадр)
Время предзагрузки промежутка : 500 мс.
[Профиль] [ЛС]
Показать сообщения:    

Текущее время: Сегодня 22:41

Часовой пояс: GMT



Вы не можете начинать темы
Вы не можете отвечать на сообщения
Вы не можете редактировать свои сообщения
Вы не можете удалять свои сообщения
Вы не можете голосовать в опросах
Вы не можете прикреплять файлы к сообщениям
Вы не можете скачивать файлы