Храброе Сердце / Braveheart (Мэл Гибсон / Mel Gibson.) [1995, США, исторический, драма, HDRip] Dub + Sub Rus

 
Автор Сообщение

sergej644 ®

Пол:

Стаж: 4 года 11 месяцев

Сообщений: 6044

Откуда: Soviet Union



Награды: Нет

Торрент-статистика

Создавать темы 05-Авг-2014 17:43

[Цитировать]

Храброе Сердце / Braveheart-«Все умирают, но не все живут по-настоящему»- Страна: США | |
Жанр: исторический, драма
Год выпуска: 1995
Продолжительность: 02:57:44-Перевод: Профессиональный (дублированный)
Cубтитры: русские на места без перевода (внешние, srt)
Режиссер: Мэл Гибсон /Mel Gibson.-В ролях: Мэл Гибсон, Софи Марсо, Патрик МакГуэн, Кэтрин МакКормак, Ангус Макфэдьен, Брендан Глисон, Дэвид О'Хара, Иэн Бэннен, Шон Лоулор, Сэнди Нелсон, Джеймс Космо, Шон МакГинли, Элан Толл, Брайан Кокс, Питер Хэнли.-Описание: 1280 год. Король Англии Эдуард I Длинноногий оккупировал значительную часть Шотландии и запретил шотландцам иметь оружие. В борьбе с отрядами короля погибают отец и брат десятилетнего Уильяма Уоллеса. Уоллеса на попечение берёт дядя — Аргайл.
Спустя несколько лет Уоллес возвращается в родную деревню, в надежде завести семью и вести хозяйство, по возможности избегая «проблем». Уоллес начинает встречаться с девушкой, с которой был другом с детства — Маррон. Чтобы избежать установленного королем Эдуардом I унизительного «права первой ночи», Маррон и Уоллес венчаются тайно.-КиноПоиск | IMDB | Семпл-Качество видео:HDRip [ BDRip/1080p/]
Формат видео: AVI
Видео: 688x288 (2.39:1), 23.976 fps, XviD build 73 ~1043 kbps avg, 0.22 bit/pixel
Аудио: 48 kHz, MPEG Layer 3, 2 ch, ~128.00 kbps avg

MediaInfo

General
Complete name : E:\Храброе сердце.(Logan1995)\Храброе сердце.avi
Format : AVI
Format/Info : Audio Video Interleave
File size : 1,47 Гбайт
Duration : 2 ч. 57 м.
Overall bit rate : 1180 Кбит/сек
Writing application : VirtualDubMod 1.5.10.3 | www.virtualdub-fr.org || (build 2550/release)
Writing library : VirtualDubMod build 2550/release
Video
ID : 0
Format : MPEG-4 Visual
Format profile : Advanced Simple@L5
Format settings, BVOP : 1
Format settings, QPel : Нет
Format settings, GMC : Без точки перехода
Format settings, Matrix : Выборочная
Codec ID : XVID
Codec ID/Hint : XviD
Duration : 2 ч. 57 м.
Bit rate : 1043 Кбит/сек
Width : 688 пикс.
Height : 288 пикс.
Display aspect ratio : 2,35:1
Frame rate : 23,976 кадр/сек
Color space : YUV
Chroma subsampling : 4:2:0
Bit depth : 8 бит
Scan type : Прогрессивная
Compression mode : С потерями
Bits/(Pixel*Frame) : 0.220
Stream size : 1,30 Гбайт (88%)
Writing library : XviD 73
Audio
ID : 1
Format : MPEG Audio
Format version : Version 1
Format profile : Layer 3
Codec ID : 55
Codec ID/Hint : MP3
Duration : 2 ч. 57 м.
Bit rate mode : Постоянный
Bit rate : 128 Кбит/сек
Channel(s) : 2 канала(ов)
Sampling rate : 48,0 КГц
Compression mode : С потерями
Stream size : 163 Мбайт (11%)
Alignment : Соединение по промежуткам
Interleave, duration : 42 мс. (1,00 видеокадр)
Interleave, preload duration : 504 ms
Writing library : LAME3.99r
Encoding settings : -m s -V 4 -q 2 -lowpass 17 -b 128

Скриншоты

[Профиль] [ЛС]

Создавать темы 06-Авг-2015 23:20 (спустя 1 год)

Топик был перенесен из форума Фильмы до 2014 года в форум Фильмы до 2012 года
sergej644
 
Кто просматривает тему:

Форум Тема Автор Размер
Фильмы 2014 года Кровь храбрых мужчин / Borgríki 2 (2014) WEBDLRip | L1 BOSS 1.37 GB
Фильмы (HD DVD, Blu-ray и BDRemux) Пес Барбос и необычный кросс, Самогонщики, «Сто грамм» для храбрости (1961-1976) BDRip [1080p] sergej644 10.37 GB
История древнего мира После Храброго сердца (После Бэннокберна) / After Braveheart (After Bannockburn) [серии 1-2 из 2] (Maurice Sweeney) [2015 г., Документально-постановочный, история, SATRip] skorpionN 1.64 GB
Фильмы (HD DVD, Blu-ray и BDRemux) Самогонщики / Пес Барбос и необычный кросс / «Сто грамм» для храбрости (Леонид Гайдай, Борис Бушмелёв, Анатолий Маркелов, Георгий Щукин) [1961, 1976, СССР, Комедия, Blu-ray disc 1080p] + Original Rus painkiller 22.85 GB
Фильмы (DVD 5/9) Самогонщики / Пес Барбос и необычный кросс / «Сто грамм» для храбрости (Леонид Гайдай, Борис Бушмелёв, Анатолий Маркелов, Георгий Щукин) [1961, 1976, СССР, Комедия, Blu-ray>DVD9 (Custom)] TorrentFilm 7.94 GB
Отечественные мультфильмы Сердце храбреца (Борис Дежкин, Геннадий Филиппов) [1951 г., мультфильм, DVB] переозвучка "Детский сеанс" 2001 TorrentFilm 459 MB
Фильмы (HD Rips | 720p, 1080p) Сто грамм для храбрости (Борис Бушмелев, Анатолий Маркелов, Георгий Щукин) [1976, СССР, комедия, BDRip 720p] TorrentFilm 3.48 GB
Зарубежные мультфильмы Храбрая сердцем / Brave (Марк Эндрюс / Mark Andrews) [2012, Мультфильм, фэнтези, комедия, приключения, семейный, BDRip-AVC] | Лицензия sergej644 1.51 GB
Показать сообщения:    

Текущее время: Сегодня 12:15

Часовой пояс: GMT



Вы не можете начинать темы
Вы не можете отвечать на сообщения
Вы не можете редактировать свои сообщения
Вы не можете удалять свои сообщения
Вы не можете голосовать в опросах
Вы не можете прикреплять файлы к сообщениям
Вы не можете скачивать файлы