Храброе сердце в 3Д / Ritter Rost 3D (Томас Боденштайн / Thomas Bodenstein) [2013, мультфильм, приключения, семейный, BDRip-AVC] Half SidebySide / Горизонтальная анаморфная стереопара

 
Автор Сообщение

reversefile ®

Пол:

Стаж: 4 года 5 месяцев

Сообщений: 842

Откуда: ReverseFile.org



Награды: Нет

Торрент-статистика

Создавать темы 25-Июл-2014 01:17

[Цитировать]

Храброе сердце в 3Д / Ritter Rost 3D
«Приключения в тридесятом королевстве»
Год: 2013
Жанр: мультфильм, приключения, семейный
Страна: Германия
Продолжительность: 01:23:58
Перевод: Дублированный [Чистый звук]
Режиссер: Томас Боденштайн, Хьюберт Вейланд, Нина Велссценарий Марк Слэйтер, Габриэла Вальтер, Йорг Хильберт, ...
Продюсер: Габриэла Вальтер, Бернхард цу Кастелл, Кейт Форсдик
Композитор: Андреас Гриммонтаж Мартин Реймерс
В главных ролях: Ульрих Фрэнк, Том Герхардт, Кристоф Мария Хербст, Рик Каваниан, Каролин Кебекус, Хартмут Нойгебауер, Пьер Питерс-Арнольдс, Детлеф Редингер, Дастин Земмельрогге
Описание: В одном сказочном королевстве, где есть мудрый король, прекрасная принцесса и храбрый рыцарь, как это всегда бывает в сказках, появился хитрый и коварный злодей, задумавший стать новым правителем. Единственный кто может помешать его планам — находчивый рыцарь Расти. Пусть пока у него не все получается, и многие не воспринимают его всерьез, он обязательно станет настоящим героем и вместе со своими верными друзьями спасет королевство.
Формат 3D: Half SideBySide / Горизонтальная анаморфная стереопара
Порядок ракурсов: левый ракурс первый
Качество: BDRip
Контейнер: MKV
Видео кодек: x264
Аудио кодек: AC3
Аудио 1: Русский / AC3 / 2 ch / 384 Кбит/с
Аудио 2: Английский / AC3 / 2 ch / 640 Кбит/с

Скриншоты


MediaInfo

Общее
Уникальный идентификатор : 216235409345609693858474496076627179663 (0xA2AD6CCC1D8C1C9A9DBCB4BC83F5F88F)
Полное имя : D:\Download\Ritter Rost 3D 2013 BDRip 1080p (IgorekSh) [torrent3d.net].mkv
Формат : Matroska
Версия формата : Version 2
Размер файла : 3,39 Гбайт
Продолжительность : 1 ч. 23 м.
Общий поток : 5773 Кбит/сек
Название фильма : torrent3d.net
Дата кодирования : UTC 2014-02-28 10:29:36
Программа кодирования : mkvmerge v4.0.0 ('The Stars were mine') сборка от Jun 6 2010 16:18:42
Библиотека кодирования : libebml v1.0.0 + libmatroska v1.0.0
Видео
Идентификатор : 1
Формат : AVC
Формат/Информация : Advanced Video Codec
Профиль формата : High@L4.1
MultiView_Count : 2
MultiView_Layout : Right Eye
Параметр CABAC формата : Да
Параметр ReFrames формата : 4 кадра
Идентификатор кодека : V_MPEG4/ISO/AVC
Продолжительность : 1 ч. 23 м.
Битрейт : 4634 Кбит/сек
Ширина : 1920 пикселей
Высота : 1080 пикселей
Соотношение сторон : 16:9
Режим частоты кадров : Постоянный
Частота кадров : 23,976 кадра/сек
Цветовое пространство : YUV
Субдискретизация насыщенности : 4:2:0
Битовая глубина : 8 бит
Тип развёртки : Прогрессивная
Бит/(Пиксели*Кадры) : 0.093
Размер потока : 2,72 Гбайт (80%)
Заголовок : IgorekSh [torrent3d.net]
Библиотека кодирования : x264 core 138 r2358 9e941d1
Настройки программы : cabac=1 / ref=4 / deblock=1:1:-1 / analyse=0x3:0x113 / me=umh / subme=7 / psy=1 / psy_rd=1.00:0.15 / mixed_ref=1 / me_range=16 / chroma_me=1 / trellis=1 / 8x8dct=1 / cqm=0 / deadzone=21,11 / fast_pskip=0 / chroma_qp_offset=-3 / threads=12 / lookahead_threads=2 / sliced_threads=0 / nr=0 / decimate=1 / interlaced=0 / bluray_compat=0 / constrained_intra=0 / bframes=3 / b_pyramid=2 / b_adapt=1 / b_bias=0 / direct=1 / weightb=1 / open_gop=0 / weightp=2 / keyint=250 / keyint_min=23 / scenecut=40 / intra_refresh=0 / rc_lookahead=40 / rc=crf / mbtree=1 / crf=20.0 / qcomp=0.60 / qpmin=0 / qpmax=69 / qpstep=4 / ip_ratio=1.40 / aq=1:1.00
Язык : English
Default : Нет
Forced : Нет
Аудио #1
Идентификатор : 2
Формат : AC-3
Формат/Информация : Audio Coding 3
Расширение режима : CM (complete main)
Параметр Endianness формата : Big
Идентификатор кодека : A_AC3
Продолжительность : 1 ч. 23 м.
Вид битрейта : Постоянный
Битрейт : 384 Кбит/сек
Каналы : 2 канала
Расположение каналов : Front: L R
Частота : 48,0 КГц
Битовая глубина : 16 бит
Метод сжатия : С потерями
Размер потока : 231 Мбайт (7%)
Заголовок : torrent3d.net
Язык : Russian
Default : Нет
Forced : Нет
Аудио #2
Идентификатор : 3
Формат : AC-3
Формат/Информация : Audio Coding 3
Расширение режима : CM (complete main)
Параметр Endianness формата : Big
Идентификатор кодека : A_AC3
Продолжительность : 1 ч. 23 м.
Вид битрейта : Постоянный
Битрейт : 640 Кбит/сек
Каналы : 2 канала
Расположение каналов : Front: L R
Частота : 44,1 КГц
Битовая глубина : 16 бит
Метод сжатия : С потерями
Размер потока : 384 Мбайт (11%)
Заголовок : torrent3d.net
Язык : English
Default : Нет
Forced : Нет
[Профиль] [ЛС]
Кто просматривает тему:

Форум Тема Автор Размер
Фильмы 2014 года Кровь храбрых мужчин / Borgríki 2 (2014) WEBDLRip | L1 BOSS 1.37 GB
Фильмы (HD DVD, Blu-ray и BDRemux) Пес Барбос и необычный кросс, Самогонщики, «Сто грамм» для храбрости (1961-1976) BDRip [1080p] sergej644 10.37 GB
История древнего мира После Храброго сердца (После Бэннокберна) / After Braveheart (After Bannockburn) [серии 1-2 из 2] (Maurice Sweeney) [2015 г., Документально-постановочный, история, SATRip] skorpionN 1.64 GB
Фильмы (HD DVD, Blu-ray и BDRemux) Самогонщики / Пес Барбос и необычный кросс / «Сто грамм» для храбрости (Леонид Гайдай, Борис Бушмелёв, Анатолий Маркелов, Георгий Щукин) [1961, 1976, СССР, Комедия, Blu-ray disc 1080p] + Original Rus painkiller 22.85 GB
Фильмы (DVD 5/9) Самогонщики / Пес Барбос и необычный кросс / «Сто грамм» для храбрости (Леонид Гайдай, Борис Бушмелёв, Анатолий Маркелов, Георгий Щукин) [1961, 1976, СССР, Комедия, Blu-ray>DVD9 (Custom)] TorrentFilm 7.94 GB
Отечественные мультфильмы Сердце храбреца (Борис Дежкин, Геннадий Филиппов) [1951 г., мультфильм, DVB] переозвучка "Детский сеанс" 2001 TorrentFilm 459 MB
Фильмы (HD Rips | 720p, 1080p) Сто грамм для храбрости (Борис Бушмелев, Анатолий Маркелов, Георгий Щукин) [1976, СССР, комедия, BDRip 720p] TorrentFilm 3.48 GB
Зарубежные мультфильмы Храбрая сердцем / Brave (Марк Эндрюс / Mark Andrews) [2012, Мультфильм, фэнтези, комедия, приключения, семейный, BDRip-AVC] | Лицензия sergej644 1.51 GB
Показать сообщения:    

Текущее время: Сегодня 08:48

Часовой пояс: GMT



Вы не можете начинать темы
Вы не можете отвечать на сообщения
Вы не можете редактировать свои сообщения
Вы не можете удалять свои сообщения
Вы не можете голосовать в опросах
Вы не можете прикреплять файлы к сообщениям
Вы не можете скачивать файлы