Храбрец / The Brave (1997) BDRip 720p от AleksSin | P, A

 
Автор Сообщение

AleksSin ®

Пол:

Стаж: 6 лет

Сообщений: 218



Награды: 4 (Подробнее)

Mega Seeder 1 (Количество: 1) Mega Seeder 2 (Количество: 1) Mega Seeder 4 (Количество: 1)
Торрент-статистика

Создавать темы 23-Фев-2016 16:46

[Цитировать]

Храбрец / The BraveГод выхода: 1997
Жанр: драма
Режиссер: Джонни Депп
В ролях: Джонни Депп, Марлон Брандо, Маршалл Белл, Эльпидия Каррильо, Луис Гузман, Фредерик Форрест, Кларенс Уильямс-третий
О фильме:
Моргантаун — огромная свалка на окраине американской цивилизации. Здесь в беспросветной нищете обитает семья Рафаэля. Маккарти — продюсер нового фильма, в котором он предполагает заснять натуральное убийство. Исполнителю главной роли обещан огромный гонорар. Рафаэль принимает предложение. До начала съемок осталось 7 дней…

Страна: США
Студия: Acappella Pictures, Brave Pictures Inc., Jeremy Thomas Productions, Majestic Films International
Продолжительность: 02:03:42
Перевод 1: Профессиональный (многоголосый закадровый)
Перевод 2: Авторский (одноголосый закадровый) В.Горчаков
Файл
Кодек: х264
Качество: BD 720p Исходник Blu-Ray Remux 1080p
Видео: MPEG-4 AVC, 6392 Кбит/с, 1280x692 (1,85:1), 24,000 кадра/сек, 0.301 bit/pixel
Аудио #1: AC-3, 48.0 KHz, 6 ch, 384 Kbps (Russian) - многоголосый
Аудио #2: AC-3, 48.0 KHz, 2 ch, 192 Kbps (Russian) - авторский
Аудио #3: AC-3, 48.0 KHz, 2 ch, 192 Kbps (English) - оригинал
Субтитры: Английские (srt)
Навигация по главам: Есть
Семпл

MediaInfo

Log
x264 [info]: frame I:1027 Avg QP:16.29 size:100503
x264 [info]: frame P:34126 Avg QP:17.55 size: 56636
x264 [info]: frame B:142979 Avg QP:19.30 size: 28164
x264 [info]: consecutive B-frames: 1.2% 1.4% 4.2% 14.8% 14.0% 43.6% 9.2% 5.7% 6.0%
Общее
Уникальный идентификатор : 196504630264602968066144771849868397270 (0x93D56A482BA480FB922F2BC34BA9CAD6)
Полное имя : S:ФильмыХрабрец. 1997. BDRip 720p (AleksSin).mkv
Формат : Matroska
Версия формата : Version 4 / Version 2
Размер файла : 6,31 Гбайт
Продолжительность : 2 ч. 3 м.
Общий поток : 7305 Кбит/сек
Дата кодирования : UTC 2016-02-23 15:38:31
Программа кодирования : mkvmerge v8.1.0 ('Psychedelic Postcard') 32bit
Библиотека кодирования : libebml v1.3.1 + libmatroska v1.4.2
DURATION : 01:42:33.714000000
NUMBER_OF_FRAMES : 770
NUMBER_OF_BYTES : 23261
_STATISTICS_WRITING_APP : mkvmerge v8.1.0 ('Psychedelic Postcard') 32bit
_STATISTICS_WRITING_DATE_UTC : 2016-02-23 15:38:31
_STATISTICS_TAGS : BPS DURATION NUMBER_OF_FRAMES NUMBER_OF_BYTES
Видео
Идентификатор : 1
Формат : AVC
Формат/Информация : Advanced Video Codec
Профиль формата : High@L4.1
Параметр CABAC формата : Да
Параметр ReFrames формата : 9 кадров
Идентификатор кодека : V_MPEG4/ISO/AVC
Продолжительность : 2 ч. 3 м.
Битрейт : 6392 Кбит/сек
Ширина : 1280 пикселей
Высота : 692 пикселя
Соотношение сторон : 1,85:1
Режим частоты кадров : Постоянный
Частота кадров : 24,000 кадра/сек
Цветовое пространство : YUV
Субдискретизация насыщенности : 4:2:0
Битовая глубина : 8 бит
Тип развёртки : Прогрессивная
Бит/(Пиксели*Кадры) : 0.301
Размер потока : 5,52 Гбайт (87%)
Библиотека кодирования : x264 core 148 r2638 7599210
Настройки программы : cabac=1 / ref=9 / deblock=1:-3:-3 / analyse=0x3:0x113 / me=umh / subme=11 / psy=1 / psy_rd=1.03:0.00 / mixed_ref=1 / me_range=32 / chroma_me=1 / trellis=2 / 8x8dct=1 / cqm=0 / deadzone=21,11 / fast_pskip=0 / chroma_qp_offset=0 / threads=12 / lookahead_threads=2 / sliced_threads=0 / nr=0 / decimate=1 / interlaced=0 / bluray_compat=0 / constrained_intra=0 / bframes=8 / b_pyramid=2 / b_adapt=2 / b_bias=0 / direct=1 / weightb=1 / open_gop=0 / weightp=2 / keyint=250 / keyint_min=23 / scenecut=40 / intra_refresh=0 / rc_lookahead=60 / rc=crf / mbtree=0 / crf=18.0 / qcomp=0.60 / qpmin=0 / qpmax=69 / qpstep=4 / vbv_maxrate=50000 / vbv_bufsize=62500 / crf_max=0.0 / nal_hrd=none / filler=0 / ip_ratio=1.40 / pb_ratio=1.30 / aq=3:1.05
Default : Да
Forced : Нет
Аудио #1
Идентификатор : 2
Формат : AC-3
Формат/Информация : Audio Coding 3
Расширение режима : CM (complete main)
Параметр Endianness формата : Big
Идентификатор кодека : A_AC3
Продолжительность : 2 ч. 3 м.
Вид битрейта : Постоянный
Битрейт : 384 Кбит/сек
Каналы : 6 каналов
Расположение каналов : Front: L C R, Side: L R, LFE
Частота : 48,0 КГц
Битовая глубина : 16 бит
Метод сжатия : С потерями
Размер потока : 340 Мбайт (5%)
Default : Да
Forced : Нет
Аудио #2
Идентификатор : 3
Формат : AC-3
Формат/Информация : Audio Coding 3
Расширение режима : CM (complete main)
Параметр Endianness формата : Big
Идентификатор кодека : A_AC3
Продолжительность : 2 ч. 3 м.
Вид битрейта : Постоянный
Битрейт : 192 Кбит/сек
Каналы : 2 канала
Расположение каналов : Front: L R
Частота : 48,0 КГц
Битовая глубина : 16 бит
Метод сжатия : С потерями
Размер потока : 170 Мбайт (3%)
Default : Нет
Forced : Нет
Аудио #3
Идентификатор : 4
Формат : AC-3
Формат/Информация : Audio Coding 3
Расширение режима : CM (complete main)
Параметр Endianness формата : Big
Идентификатор кодека : A_AC3
Продолжительность : 2 ч. 3 м.
Вид битрейта : Постоянный
Битрейт : 192 Кбит/сек
Каналы : 2 канала
Расположение каналов : Front: L R
Частота : 48,0 КГц
Битовая глубина : 16 бит
Метод сжатия : С потерями
Размер потока : 170 Мбайт (3%)
Default : Нет
Forced : Нет
Текст
Идентификатор : 5
Формат : UTF-8
Идентификатор кодека : S_TEXT/UTF8
Идентификатор кодека/Информация : UTF-8 Plain Text
Default : Да
Forced : Нет
Меню
00:00:00.000 : en:
00:05:00.000 : en:
00:10:00.000 : en:
00:15:00.000 : en:
00:20:00.000 : en:
00:25:00.000 : en:
00:30:00.000 : en:
00:35:00.000 : en:
00:40:00.000 : en:
00:45:00.000 : en:
00:50:00.000 : en:
00:55:00.000 : en:
01:00:00.000 : en:

Скриншоты

[Профиль] [ЛС]
Кто просматривает тему:

Форум Тема Автор Размер
Фильмы 2014 года Кровь храбрых мужчин / Borgríki 2 (2014) WEBDLRip | L1 BOSS 1.37 GB
Фильмы (HD DVD, Blu-ray и BDRemux) Пес Барбос и необычный кросс, Самогонщики, «Сто грамм» для храбрости (1961-1976) BDRip [1080p] sergej644 10.37 GB
История древнего мира После Храброго сердца (После Бэннокберна) / After Braveheart (After Bannockburn) [серии 1-2 из 2] (Maurice Sweeney) [2015 г., Документально-постановочный, история, SATRip] skorpionN 1.64 GB
Фильмы (HD DVD, Blu-ray и BDRemux) Самогонщики / Пес Барбос и необычный кросс / «Сто грамм» для храбрости (Леонид Гайдай, Борис Бушмелёв, Анатолий Маркелов, Георгий Щукин) [1961, 1976, СССР, Комедия, Blu-ray disc 1080p] + Original Rus painkiller 22.85 GB
Фильмы (DVD 5/9) Самогонщики / Пес Барбос и необычный кросс / «Сто грамм» для храбрости (Леонид Гайдай, Борис Бушмелёв, Анатолий Маркелов, Георгий Щукин) [1961, 1976, СССР, Комедия, Blu-ray>DVD9 (Custom)] TorrentFilm 7.94 GB
Отечественные мультфильмы Сердце храбреца (Борис Дежкин, Геннадий Филиппов) [1951 г., мультфильм, DVB] переозвучка "Детский сеанс" 2001 TorrentFilm 459 MB
Фильмы (HD Rips | 720p, 1080p) Сто грамм для храбрости (Борис Бушмелев, Анатолий Маркелов, Георгий Щукин) [1976, СССР, комедия, BDRip 720p] TorrentFilm 3.48 GB
Зарубежные мультфильмы Храбрая сердцем / Brave (Марк Эндрюс / Mark Andrews) [2012, Мультфильм, фэнтези, комедия, приключения, семейный, BDRip-AVC] | Лицензия sergej644 1.51 GB
Показать сообщения:    

Текущее время: Сегодня 08:30

Часовой пояс: GMT



Вы не можете начинать темы
Вы не можете отвечать на сообщения
Вы не можете редактировать свои сообщения
Вы не можете удалять свои сообщения
Вы не можете голосовать в опросах
Вы не можете прикреплять файлы к сообщениям
Вы не можете скачивать файлы