Хотел бы я быть здесь / Wish I Was Here (2014) WEB-DL 720p | iTunes

 
Автор Сообщение

К@питан ®

Пол:

Стаж: 5 лет 6 месяцев

Сообщений: 6092

Откуда: Soviet Union



Награды: Нет

Торрент-статистика

Создавать темы 10-Фев-2015 09:00

[Цитировать]

Хотел бы я быть здесь / Wish I Was Here (2014) WEB-DL 720p | ATV | D iTunes
«Жизнь — это шанс. Воспользуйся им»
-Год выпуска: 2014
Производство: США / © 2014 Focus Features. All Rights Reserved.
Жанр: драма, комедия
Режиссер: Зак Брафф
В ролях: Зак Брафф, Джош Гэд, Кейт Хадсон, Джим Парсонс, Джои Кинг, Эшли Грин, Мэнди Пэтинкин, Дональд Фэйзон, Джеймс Эйври, Майкл Уэстон, Пирс Гэнон, Александр Чаплин, Лесли Дэвид Бэйкер, Аллан Рич, Николь Галисия, Мэтт Уинстон
Описание:
Айдан Блум - вроде бы актер по профессии, муж, отец, но на самом деле в свои 35 он застрял в детских играх и до сих пор мечтает стать космическим рыцарем. Сложилось так, что Айдану пришлось заняться воспитанием своих детей. Каждый урок - кошмар и хаос. Инфантильный отец вынужден искать собственные педагогические методы. Чем обернется эта папашина школа?

Продолжительность: 01:41:52
Перевод: Дублированный [iTunes]
Cубтитры: Отсутствует
Качество: WEB-DL [720p]
Видео: MPEG-4 AVC/H.264, 960x566@1280x566 (2.25:1), 4 300 kbps, 25.000 fps
Аудио 1: Русский/Дублированный [iTunes], AAC / 2.0 / 160 Kbps / 48.0 KHz
Аудио 2: Русский/Дублированный [iTunes], AC3 / 5.1 / 384 Kbps / 48.0 KHz

iTunes Meta Tags

Sort Name: Wish I Was Here
XID: Apple:vendor_id:2014-760376
Content ID: 900176701
Copyright: © 2014 Focus Features. All Rights Reserved.
ScreenWriters: Адам Дж. Брафф, Зак Брафф
Producers: Адам Дж. Брафф, Зак Брафф, Майкл Шамберг
Director: Зак Брафф
Cast: Zach Braff (Aidan Bloom), Kate Hudson (Sarah Bloom), Joey King (Grace), Pierce Gagnon (Tucker), Donald Faison (Anthony), Mandy Patinkin (Saul Bloom), Ashley Greene (Janine), Jim Parsons (Paul), James Avery (Audition Actor #2), Alexander Chaplin (Rabbi Rosenberg), Josh Gad (Noah)
Rating: R
Long Deion: История Айдана Блума — актера, отца и мужа, который в свои 35 лет все еще пытается найти себя, цель своей жизни. Уча жизни двух своих детей, Айдан постепенно обнаруживает некоторые части себя, которые он не мог найти раньше…
Deion: История Айдана Блума — актера, отца и мужа, который в свои 35 лет все еще пытается найти себя, цель своей жизни. Уча жизни двух своих детей, Айдан постепенно обнаруживает некоторые части себя, которые он не мог найти раньше…
Release Date: 2014-07-18T07:00:00Z
Genre: Drama
Artist: Zach Braff
Name: Хотел бы я быть здесь
Comments: «Жизнь — это шанс. Воспользуйся им»

MediaInfo

General
Complete name : C:CREATE264mod1outWish.I.Was.Here.2014.WEB-DL.D.NNM.m4v
Format : MPEG-4
Codec ID : M4V
File size : 3.44 GiB
Duration : 1h 41mn
Overall bit rate mode : Variable
Overall bit rate : 4 830 Kbps
Movie name : Хотел бы я быть здесь
Performer : Zach Braff
Genre : Drama
ContentType : Short Film
Deion : История Айдана Блума — актера, отца и мужа, который в свои 35 лет все еще пытается найти себя, цель своей жизни. Уча жизни двух своих детей, Айдан постепенно обнаруживает некоторые части себя, которые он не мог найти раньше…
Recorded date : UTC 2014-07-18 07:00:00
Encoded date : UTC 2014-09-30 19:08:00
Tagged date : UTC 2014-09-30 19:12:34
Copyright : © 2014 Focus Features. All Rights Reserved.
Cover : Yes
Comment : «Жизнь — это шанс. Воспользуйся им»
ContentRating : mpaa|R|400|
Title/Sort : Wish I Was Here
LongDeion : История Айдана Блума — актера, отца и мужа, который в свои 35 лет все еще пытается найти себя, цель своей жизни. Уча жизни двух своих детей, Айдан постепенно обнаруживает некоторые части себя, которые он не мог найти раньше…
AppleStoreCatalogID : 900176701
Vendor : Apple:vendor_id:2014-760376
Video
ID : 1
Format : AVC
Format/Info : Advanced Video Codec
Format profile : Main@L3.1
Format settings, CABAC : No
Format settings, ReFrames : 2 frames
Format settings, GOP : M=2, N=86
Codec ID : avc1
Codec ID/Info : Advanced Video Coding
Duration : 1h 41mn
Bit rate : 4 275 Kbps
Maximum bit rate : 13.7 Mbps
Width : 960 pixels
Height : 566 pixels
Display aspect ratio : 2.25:1
Frame rate mode : Constant
Frame rate : 25.000 fps
Color space : YUV
Chroma subsampling : 4:2:0
Bit depth : 8 bits
Scan type : Progressive
Bits/(Pixel*Frame) : 0.315
Stream size : 3.04 GiB (89%)
Language : English
Encoded date : UTC 2014-09-30 19:08:00
Tagged date : UTC 2014-09-30 19:09:47
Color primaries : BT.709
Transfer characteristics : BT.709
Matrix coefficients : BT.709
Audio #1
ID : 2
Format : AAC
Format/Info : Advanced Audio Codec
Format profile : LC
Codec ID : 40
Duration : 1h 41mn
Bit rate mode : Variable
Bit rate : 163 Kbps
Maximum bit rate : 196 Kbps
Channel(s) : 2 channels
Channel positions : Front: L R
Sampling rate : 48.0 KHz
Compression mode : Lossy
Stream size : 119 MiB (3%)
Language : Russian
Encoded date : UTC 2014-09-30 19:04:16
Tagged date : UTC 2014-09-30 19:09:47
Audio #2
ID : 3
Format : AC-3
Format/Info : Audio Coding 3
Mode extension : CM (complete main)
Format settings, Endianness : Big
Codec ID : ac-3
Duration : 1h 41mn
Bit rate mode : Constant
Bit rate : 384 Kbps
Channel(s) : 6 channels
Channel positions : Front: L C R, Side: L R, LFE
Sampling rate : 48.0 KHz
Bit depth : 16 bits
Compression mode : Lossy
Stream size : 280 MiB (8%)
Language : Russian
Encoded date : UTC 2014-09-30 19:09:41
Tagged date : UTC 2014-09-30 19:09:47
Menu
ID : 4
Codec ID : text
Duration : 1h 41mn
Encoded date : UTC 2014-09-30 19:10:45
Tagged date : UTC 2014-09-30 19:10:45
Bit rate mode : VBR

Screenshots

[Профиль] [ЛС]
Кто просматривает тему:

Показать сообщения:    

Текущее время: Сегодня 19:16

Часовой пояс: GMT



Вы не можете начинать темы
Вы не можете отвечать на сообщения
Вы не можете редактировать свои сообщения
Вы не можете удалять свои сообщения
Вы не можете голосовать в опросах
Вы не можете прикреплять файлы к сообщениям
Вы не можете скачивать файлы