Хороший сосед / The Good Neighbor (2016) HDRip | L1

 
Автор Сообщение

достали все ®

Пол:

Стаж: 1 год 8 месяцев

Сообщений: 6584



Награды: 12 (Подробнее)

Mega Seeder 4 (Количество: 1) Mega Releaser 2 (Количество: 1) Mega Seeder 2 (Количество: 1)
Торрент-статистика

Создавать темы 30-Сен-2016 10:11

[Цитировать]

Хороший сосед / The Good Neighbor
Страна: США
Производство: Anonymous Content, Ball & Chain Productions, Star Thrower Entertainment
Год выпуска: 2016
Жанр: триллер
Продолжительность: 01:37:20
Режиссер: Касра Фарахани
Автор сценария: Джефф Ричард
В ролях: Джеймс Каан, Логан Миллер, Кейр Гилкрист, Лора Иннес, Эдвин Ходж, Энн Дудек, Бэйли Ноубл, Лили Рейнхарт, Минди Стерлинг
Описание: Пара старшеклассников решает заставить своего соседа поверить в то, что в его доме обитают призраки. Однако, их предполагаемая жертва реагирует на происходящее совсем не так, как те ожидали...

Перевод: Любительский (одноголосый, закадровый) | Пётр Титов
Субтитры: нет-Качество: HDRip
Формат: АVI
Видео кодек: XviD
Аудио кодек: АС3 | MP3
Видео: 720x304 (2.35:1), 23.976 fps, XviD build 66 ~1 510 kbps avg, 0.288 bit/pixel
Аудио №1: 48 kHz, AC3 Dolby Digital, 3/2 (L,C,R,l,r) + LFE ch, ~384 kbps | ENG
Аудио №2: 44.1 kHz, MPEG Layer 3, 2 ch, ~320.00 kbps avg | RUS / Пётр Титов
Дата премьеры (мир): 13 марта 2016

Media Info

General
Complete name : хороший сосед.avi
Format : AVI
Format/Info : Audio Video Interleave
File size : 1.51 GiB
Duration : 1h 37mn
Overall bit rate : 2 228 Kbps
Writing application : VirtualDubMod 1.5.10.2 (build 2540/release)
Writing library : VirtualDubMod build 2540/release
Video
ID : 0
Format : MPEG-4 Visual
Format profile : Advanced Simple@L5
Format settings, BVOP : 2
Format settings, QPel : No
Format settings, GMC : No warppoints
Format settings, Matrix : Default (H.263)
Muxing mode : Packed bitstream
Codec ID : XVID
Codec ID/Hint : XviD
Duration : 1h 37mn
Bit rate : 1 510 Kbps
Width : 720 pixels
Height : 304 pixels
Display aspect ratio : 2.35:1
Frame rate : 23.976 fps
Color space : YUV
Chroma subsampling : 4:2:0
Bit depth : 8 bits
Scan type : Progressive
Compression mode : Lossy
Bits/(Pixel*Frame) : 0.288
Stream size : 1.03 GiB (68%)
Writing library : XviD 66
Audio #1
ID : 1
Format : AC-3
Format/Info : Audio Coding 3
Mode extension : CM (complete main)
Format settings, Endianness : Big
Codec ID : 2000
Duration : 1h 37mn
Bit rate mode : Constant
Bit rate : 384 Kbps
Channel(s) : 6 channels
Channel positions : Front: L C R, Side: L R, LFE
Sampling rate : 48.0 KHz
Bit depth : 16 bits
Compression mode : Lossy
Stream size : 267 MiB (17%)
Alignment : Aligned on interleaves
Interleave, duration : 42 ms (1.00 video frame)
Interleave, preload duration : 512 ms
Audio #2
ID : 2
Format : MPEG Audio
Format version : Version 1
Format profile : Layer 3
Codec ID : 55
Codec ID/Hint : MP3
Duration : 1h 37mn
Bit rate mode : Constant
Bit rate : 320 Kbps
Channel(s) : 2 channels
Sampling rate : 44.1 KHz
Compression mode : Lossy
Stream size : 223 MiB (14%)
Alignment : Split accross interleaves
Interleave, duration : 42 ms (1.00 video frame)
Interleave, preload duration : 500 ms

Скриншоты

[Профиль] [ЛС]
Показать сообщения:    

Текущее время: Сегодня 08:01

Часовой пояс: GMT



Вы не можете начинать темы
Вы не можете отвечать на сообщения
Вы не можете редактировать свои сообщения
Вы не можете удалять свои сообщения
Вы не можете голосовать в опросах
Вы не можете прикреплять файлы к сообщениям
Вы не можете скачивать файлы