Хороший, плохой, злой / Il buono, il brutto, il cattivo (1966) BDRip-AVC от R.G. HD-Films | Extended English version | 60 fps

 
Автор Сообщение

BOSS ®

Пол:

Стаж: 2 года 1 месяц

Сообщений: 3718

Откуда: ODESSA



Награды: 20 (Подробнее)

Top Keeper 4 (Количество: 1) Top Releaser 4 (Количество: 1) Mega Seeder 4 (Количество: 1)
Торрент-статистика

Создавать темы 15-Фев-2016 16:52

[Цитировать]

-Название: Хороший, плохой, злой
Оригинальное название: Il buono, il brutto, il cattivo
Год выпуска: 1966
Страна: Италия, Испания, Германия (ФРГ), США
Жанр: вестерн
Продолжительность: 02:58:36
Перевод: Профессиональный (многоголосый)
Субтитры: русские (Полные), английские (Полные)-Режиссер: Серджио Леоне-В ролях: Клинт Иствуд (Blondie), Ли Ван Клиф (Sentenza / Angel Eyes), Илай Уоллак (Tuco), Альдо Джуффре (Alcoholic Union Captain), Луиджи Пистилли (Father Pablo Ramirez), Рада Рассимов (Maria), Энцо Петито (Storekeeper), Клаудио Скаркилли (Mexican Peon), Джон Барта (Sheriff), Ливио Лоренцон (Baker), Антонио Казале (Jackson / Bill Carson), Сандро Скаркилли (Mexican Peon)-Описание:
В разгар гражданской войны таинственный стрелок скитается по просторам Дикого Запада. У него нет ни дома, ни друзей, ни компаньонов, пока он не встречает двоих незнакомцев, таких же безжалостных и циничных.
По воле судьбы трое мужчин вынуждены объединить свои усилия в поисках украденного золота. Но совместная работа - не самое подходящее занятие для таких отъявленных бандитов, как они. Компаньоны вскоре понимают, что в их дерзком и опасном путешествии по разоренной войной стране самое важное - никому не доверять и держать пистолет наготове, если хочешь остаться в живых.-Рейтинг:

MPAA: R - Лицам до 17 лет обязательно присутствие взрослого-Качество: BDRip-AVC 60fps
Формат: MKV
Видео: AVC, 1024x432 (2.35:1), 2715 kbps, 59,940 fps, 0,102 bpp
Аудио: русский / AC3 / 5.1 / 48 kHz / 448 kbps / 16 bit |SomeWax|
Навигация по главам: есть- -

ОтчетМедиаИнфо

General
Unique ID : 171728304995983724310637875322741501712 (0x8131AB221966FAD6B806DCDB3596AF10)
Format : Matroska
Format version : Version 4 / Version 2
File size : 3.95 GiB
Duration : 2h 58mn
Overall bit rate : 3 167 Kbps
Movie name : Tiberiumsun69
Encoded date : UTC 2016-02-14 06:18:01
Writing application : mkvmerge v8.3.0 ('Over the Horizon') 64bit
Writing library : libebml v1.3.1 + libmatroska v1.4.2
Attachment : Yes
Video
ID : 1
Format : AVC
Format/Info : Advanced Video Codec
Format profile : High@L4.1
Format settings, CABAC : Yes
Format settings, ReFrames : 4 frames
Codec ID : V_MPEG4/ISO/AVC
Duration : 2h 58mn
Bit rate : 2 715 Kbps
Width : 1 024 pixels
Height : 432 pixels
Display aspect ratio : 2.35:1
Frame rate : 59.940 fps
Color space : YUV
Chroma subsampling : 4:2:0
Bit depth : 8 bits
Scan type : Progressive
Bits/(Pixel*Frame) : 0.102
Stream size : 3.31 GiB (84%)
Title : Tiberiumsun69
Writing library : x264 core 146 r2538 121396c
Encoding settings : cabac=1 / ref=3 / deblock=1:0:0 / analyse=0x3:0x113 / me=umh / subme=11 / psy=1 / psy_rd=1.00:0.10 / mixed_ref=1 / me_range=32 / chroma_me=1 / trellis=2 / 8x8dct=1 / cqm=0 / deadzone=21,11 / fast_pskip=0 / chroma_qp_offset=-3 / threads=12 / lookahead_threads=3 / sliced_threads=0 / nr=0 / decimate=1 / interlaced=0 / bluray_compat=0 / constrained_intra=0 / bframes=16 / b_pyramid=2 / b_adapt=2 / b_bias=0 / direct=3 / weightb=1 / open_gop=0 / weightp=2 / keyint=250 / keyint_min=25 / scenecut=40 / intra_refresh=0 / rc_lookahead=40 / rc=2pass / mbtree=1 / bitrate=2715 / ratetol=1.0 / qcomp=0.60 / qpmin=0 / qpmax=69 / qpstep=4 / cplxblur=20.0 / qblur=0.5 / vbv_maxrate=14000 / vbv_bufsize=14000 / nal_hrd=none / filler=0 / ip_ratio=1.40 / aq=1:1.00
Language : English
Default : Yes
Forced : No
Audio
ID : 2
Format : AC-3
Format/Info : Audio Coding 3
Mode extension : CM (complete main)
Codec ID : A_AC3
Duration : 2h 58mn
Bit rate mode : Constant
Bit rate : 448 Kbps
Channel(s) : 6 channels
Channel positions : Front: L C R, Side: L R, LFE
Sampling rate : 48.0 KHz
Bit depth : 16 bits
Compression mode : Lossy
Stream size : 572 MiB (14%)
Title : MVO SomeWax
Language : Russian
Default : Yes
Forced : No
Text #1
ID : 3
Format : UTF-8
Codec ID : S_TEXT/UTF8
Codec ID/Info : UTF-8 Plain Text
Title : Полные
Language : Russian
Default : No
Forced : No
Text #2
ID : 4
Format : UTF-8
Codec ID : S_TEXT/UTF8
Codec ID/Info : UTF-8 Plain Text
Title : Полные
Language : English
Default : No
Forced : No
Menu
00:00:00.000 : en:Chapter 1
00:03:01.806 : en:Chapter 2
00:06:06.282 : en:Chapter 3
00:15:09.909 : en:Chapter 4
00:17:32.301 : en:Chapter 5
00:22:02.446 : en:Chapter 6
00:24:43.440 : en:Chapter 7
00:27:53.797 : en:Chapter 8
00:29:48.828 : en:Chapter 9
00:32:11.846 : en:Chapter 10
00:38:24.510 : en:Chapter 11
00:41:40.581 : en:Chapter 12
00:49:44.314 : en:Chapter 13
00:54:01.821 : en:Chapter 14
00:57:25.733 : en:Chapter 15
01:06:05.336 : en:Chapter 16
01:13:40.541 : en:Chapter 17
01:22:38.870 : en:Chapter 18
01:29:27.737 : en:Chapter 19
01:35:34.270 : en:Chapter 20
01:38:28.611 : en:Chapter 21
01:47:07.629 : en:Chapter 22
01:53:20.668 : en:Chapter 23
01:57:02.432 : en:Chapter 24
02:06:06.684 : en:Chapter 25
02:11:00.394 : en:Chapter 26
02:17:42.170 : en:Chapter 27
02:23:56.711 : en:Chapter 28
02:32:55.040 : en:Chapter 29
02:39:32.521 : en:Chapter 30
02:43:19.664 : en:Chapter 31
02:49:01.089 : en:Chapter 32

Скриншоты

Просьба к переливающим на другие сайты, в оформлении указывайте пожалуйста авторство группы
[Профиль] [ЛС]
Показать сообщения:    

Текущее время: Сегодня 14:37

Часовой пояс: GMT



Вы не можете начинать темы
Вы не можете отвечать на сообщения
Вы не можете редактировать свои сообщения
Вы не можете удалять свои сообщения
Вы не можете голосовать в опросах
Вы не можете прикреплять файлы к сообщениям
Вы не можете скачивать файлы